Welcome Guest ( Log In | Register )

> Releases Upload / Добавление релизов

Добавить релиз тут / Click here to add release
Рекомендованные обменники / Recommended file shares

 
Reply to this topicStart new topic
> Awaken Antagonist - Shepherd Of Plagues (2017), Melodic Death Metal/Deathcore
post Nov 23 2021, 16:09:23
Post #1

Семь Литров
*******
Group: Металариец
Posts: 709
Releases: 144
On Forums: 2 years 6 months
Thanks: 2757 time(s)
Russian Federation


(IMG:https://metalarea.org/images/audiocovers/2021_Nov/acov_tid358745_thumb.jpg)

*Artist: Awaken Antagonist
*Album: Shepherd Of Plagues
*Year: 2017
*Genre: Melodic Death Metal/Deathcore
*Country: United States (IMG:https://metalarea.org/forum/style_images/flags/United%20States.png)
*Format: mp3@CBR320kbps
*Size: 71MB

Tracklist:
1. Shepherd of Plagues 4:00
2. Harvester of the Womb 4:29
3. Of Earth and Clay 3:26
4. Galaxy Crusher 7:06
5. Mortis Uxor 5:08
6. Carpe Noctum 3:22
7. Barbarian’s Ballad 5:53
******************************
Total playing time: 33:24



Technical info
(IMG:https://metalarea.org/images/spectrogram/2021_Nov/d6b87a13f5dd303e3352567fab00e58c.png)
Input File: 02. Harvester of the Womb.mp3
Channels : 2
Sample Rate : 44100
Precision : 16-bit
Duration : 00:04:29.05 = 11865237 samples = 20179 CDDA sectors
File Size : 10.8M
Bit Rate : 320k
Sample Encoding: MPEG audio (layer I, II or III)
Comments :
Title=Harvester of the Womb
Artist=Awaken Antagonist
Album=Shepherd of Plagues
Tracknumber=2/7
Year=2017
Genre=Melodic Death Metal/Deathcore
Discnumber=1/1



Register


Go to the top of the page
  Insert nick Quick quote
+Quote Post

Reply to this topicStart new topic
1 User(s) are reading this topic (1 Guests and 0 Anonymous Users)
0 Members:

 



- Lo-Fi Version Support form
Copyrights and abuse reports form
Time is now: 29th November 2021 - 05:55:57