Welcome Guest ( Log In | Register )

> Releases Upload / Добавление релизов

Добавить релиз тут / Click here to add release
Рекомендованные обменники / Recommended file shares

> Gravety - Bow Down (2021), Epic Heavy Metal
post Nov 23 2021, 16:36:14
Post #1

Правь статус, ####!111
**************
Group: Металариец
Posts: 28,136
Releases: 20530
From: Г.Харьков
On Forums: 9 years 6 months
Thanks: 417913 time(s)
Unknown


(IMG:https://metalarea.org/images/audiocovers/2021_Nov/acov_tid358746_thumb.jpg)

*Artist: Gravety
*Album: Bow Down
*Year: 2021
*Genre: Epic Heavy Metal
*Country: Germany (IMG:https://metalarea.org/forum/style_images/flags/Germany.png)
*Format: mp3@CBR320kbps
*Size: 96MB

Tracklist:
1. Feat of Valour 02:02
2. Bow Down 04:27
3. Tower of Ghenjei 06:09
4. Unleash the Flame 08:21
5. Braveness Beyond Fear 05:35
6. Red Mountain 04:08
7. Tales from the Fallen 06:17
8. Carry On the Flame 04:48
******************************
Total playing time: 41:47




Extended info
Simon Schmitt Bass
Lukas Didion Drums
Philipp Albert Guitars
Gernot Gebhard Guitars
Kevin Portz Vocals



Technical info
(IMG:https://metalarea.org/images/spectrogram/2021_Nov/bfd0a906a3d73a4032a4ecb1ddce95ef.png)
Input File: 07 - Tales from the Fallen.mp3
Channels : 2
Sample Rate : 44100
Precision : 16-bit
Duration : 00:06:17.10 = 16630022 samples = 28282.4 CDDA sectors
File Size : 15.2M
Bit Rate : 322k
Sample Encoding: MPEG audio (layer I, II or III)
Comments :
Title=Tales from the Fallen
Artist=Gravety
Album=Bow Down
Tracknumber=7/8
Year=2021



Register


Go to the top of the page
  Insert nick Quick quote
+Quote Post
 
Start new topic
Replies (1 - 1)
post Nov 25 2021, 16:57:06
Post #2

Common dweller of hell
**************
Group: Металариец
Posts: 4,110
Releases: 12
From: Dnipro
On Forums: 13 years 4 months
Thanks: 1609 time(s)
Ukraine


олдскульная штука, есть хорошие песни.
Go to the top of the page
  Insert nick Quick quote
+Quote Post

Reply to this topicStart new topic
1 User(s) are reading this topic (1 Guests and 0 Anonymous Users)
0 Members:

 



- Lo-Fi Version Support form
Copyrights and abuse reports form
Time is now: 29th November 2021 - 06:12:01