Welcome Guest ( Log In | Register )

> Releases Upload / Добавление релизов

Добавить релиз тут / Click here to add release
Рекомендованные обменники / Recommended file shares

> Lascaille's Shroud - The Gold Flesh Of The Sun (2021), Progressive Death Metal (D12)
post Nov 23 2021, 17:19:43
Post #1

Serial Uploader
Group Icon
Group: V.I.P
Posts: 37,884
Releases: 36046
From: Lithuania
On Forums: 13 years 5 months
Thanks: 439698 time(s)
Lithuania


(IMG:https://metalarea.org/images/audiocovers/2021_Nov/acov_tid358747_thumb.jpg)

*Artist: Lascaille's Shroud
*Album: The Gold Flesh Of The Sun
*Year: 2021
*Genre: Progressive Death Metal
*Country: United States (IMG:https://metalarea.org/forum/style_images/flags/United%20States.png)
*Format: mp3@CBR320kbps
*Size: 96MB

Tracklist:
01. Starflesh Martyrdom
02. The Masking of Baru Cormorant
03. We Pray for Rain
04. The Men Who Could Not See Themselves
05. The Gold Flesh of the Sun
******************************
Total playing time: 41:46


Preview 2

Technical info
(IMG:https://metalarea.org/images/spectrogram/2021_Nov/49aa863a1f6455f879a61280cf7f9094.png)
Input File: 02. The Masking of Baru Cormorant.mp3
Channels : 2
Sample Rate : 44100
Precision : 16-bit
Duration : 00:09:45.10 = 25802910 samples = 43882.5 CDDA sectors
File Size : 23.8M
Bit Rate : 326k
Sample Encoding: MPEG audio (layer I, II or III)
Comments :
Title=The Masking of Baru Cormorant
Artist=Lascaille's Shroud
Album=The Gold Flesh of the Sun
Tracknumber=02/05
Year=2021
Discnumber=1/1



Register


Go to the top of the page
  Insert nick Quick quote
+Quote Post
 
Start new topic
Replies (1 - 1)
post Nov 25 2021, 17:00:04
Post #2

Common dweller of hell
**************
Group: Металариец
Posts: 4,110
Releases: 12
From: Dnipro
On Forums: 13 years 4 months
Thanks: 1609 time(s)
Ukraine


Хорошая группа, постоянно выпускающая очень достойные альбомы, жаль что недооцененная многими. (IMG:style_emoticons/default/6.gif)
По стилю ближе будет: Progressive Melodic Death Metal


Thanks:
(1) StabWound,
Go to the top of the page
  Insert nick Quick quote
+Quote Post

Reply to this topicStart new topic
1 User(s) are reading this topic (1 Guests and 0 Anonymous Users)
0 Members:

 



- Lo-Fi Version Support form
Copyrights and abuse reports form
Time is now: 29th November 2021 - 06:26:51