Welcome Guest ( Log In | Register )

> Releases Upload / Добавление релизов

Добавить релиз тут / Click here to add release
Рекомендованные обменники / Recommended file shares

> Gravewürm - The Sorcerer's Lair (2021), Black/Death Metal (D22)
post Nov 23 2021, 17:37:32
Post #1

Serial Uploader
Group Icon
Group: V.I.P
Posts: 37,884
Releases: 36046
From: Lithuania
On Forums: 13 years 5 months
Thanks: 439698 time(s)
Lithuania


(IMG:https://metalarea.org/images/audiocovers/2021_Nov/acov_tid358748_thumb.jpg)

*Artist: Gravewürm
*Album: The Sorcerer's Lair
*Year: 2021
*Genre: Black/Death Metal
*Country: United States (IMG:https://metalarea.org/forum/style_images/flags/United%20States.png)
*Format: mp3@CBR320kbps
*Size: 87MB

Tracklist:
01. Sorcery Returns 06:23
02. The Night Sisters 02:54
03. Storm of Sorcery 04:49
04. Lady of the Midnight Fire 03:39
05. Sacrificed at Dawn 04:25
06. The World Below 03:09
07. The Final War 07:52
08. Between the Realms of Light And Dark 04:14
******************************
Total playing time: 37:25

(IMG:https://metalarea.org/images/myspace.png)




Extended info
Exclusive for Metalarea.org


Technical info
(IMG:https://metalarea.org/images/spectrogram/2021_Nov/f6ed264ce5598d07e3e35863d6f710c4.png)
Input File: 02. The Night Sisters.mp3
Channels : 2
Sample Rate : 44100
Precision : 16-bit
Duration : 00:02:54.40 = 7691172 samples = 13080.2 CDDA sectors
File Size : 7.16M
Bit Rate : 328k
Sample Encoding: MPEG audio (layer I, II or III)
Comments :
Title=The Night Sisters
Artist=Gravewurm
Album=The Sorcerer's Lair (2021 album)
Tracknumber=2
Year=2021



Register


Go to the top of the page
  Insert nick Quick quote
+Quote Post
 
Start new topic
Replies (1 - 2)
post Nov 25 2021, 04:19:56
Post #2

Маньяк
**********
Group: Металариец
Posts: 1,228
Releases: 232
On Forums: 2 years 10 months
Thanks: 3499 time(s)
Canada


Awesome! and they got even better from when I last heard them from like 20 years ago on Ancient Storms of War.
Go to the top of the page
  Insert nick Quick quote
+Quote Post
post Nov 25 2021, 09:11:51
Post #3

A Forgotten Dream
**************
Group: Металариец
Posts: 6,810
Releases: 8
On Forums: 12 years 2 weeks
Thanks: 3229 time(s)
Unknown


сочкуют в этом году что то. (IMG:style_emoticons/default/hmm.gif) то ли дело в прошлом, 8 или 9 релизов...
Go to the top of the page
  Insert nick Quick quote
+Quote Post

Reply to this topicStart new topic
2 User(s) are reading this topic (2 Guests and 0 Anonymous Users)
0 Members:

 



- Lo-Fi Version Support form
Copyrights and abuse reports form
Time is now: 29th November 2021 - 06:40:36