Welcome Guest ( Log In | Register )

> Releases Upload / Добавление релизов

Добавить релиз тут / Click here to add release
Рекомендованные обменники / Recommended file shares

 
Reply to this topicStart new topic
> Ömheten - Själv (2015), Depressive Black Metal
post Nov 23 2021, 21:51:41
Post #1

Все люди - черви.
**********
Group: Металариец
Posts: 1,219
Releases: 158
From: Пхёнъян, Северная Корея
On Forums: 8 years 10 months
Thanks: 4865 time(s)
North Korea


(IMG:https://metalarea.org/images/audiocovers/2021_Nov/acov_tid358750_thumb.jpg)

*Artist: Ömheten
*Album: Själv
*Year: 2015
*Genre: Depressive Black Metal
*Country: Sweden (IMG:https://metalarea.org/forum/style_images/flags/Sweden.png)
*Format: mp3@CBR320kbps
*Size: 84MB

Tracklist:
1. Det Som Släcker Mig
2. Själv
3. Stäng Av Mig
4. Apati, Är Du Min Älskling?
5. Självmedicineringens Experter
6. Evig Semester Från Mig Själv
******************************
Total playing time: 36:37

(IMG:https://metalarea.org/images/youtube.png)

Technical info
(IMG:https://metalarea.org/images/spectrogram/2021_Nov/8caad73ad6beda8d9d4c15a5596d0d7b.png)
Input File: 04 - Apati, är du min älskling.mp3
Channels : 2
Sample Rate : 44100
Precision : 16-bit
Duration : 00:06:06.16 = 16147436 samples = 27461.6 CDDA sectors
File Size : 14.6M
Bit Rate : 320k
Sample Encoding: MPEG audio (layer I, II or III)
Comments :
Title=Apati, är du min älskling?
Artist=Ömheten
Album=Själv
Tracknumber=04
Year=2015
Genre=Depressive Black Metal



Register


Go to the top of the page
  Insert nick Quick quote
+Quote Post

Reply to this topicStart new topic
1 User(s) are reading this topic (1 Guests and 0 Anonymous Users)
0 Members:

 



- Lo-Fi Version Support form
Copyrights and abuse reports form
Time is now: 29th November 2021 - 06:02:22