Welcome Guest ( Log In | Register )

> Crystal Throne - Crystal Throne (2021), Heavy Metal
post Nov 24 2021, 01:22:16
Post #1

Serial Uploader
Group Icon
Group: V.I.P
Posts: 38,480
Releases: 36627
From: Lithuania
On Forums: 13 years 11 months
Thanks: 453231 time(s)
Lithuania


(IMG:http://metalarea.org/images/audiocovers/2021_Nov/acov_tid358751_thumb.jpg)

*Artist: Crystal Throne
*Album: Crystal Throne
*Year: 2021
*Genre: Heavy Metal
*Country: France (IMG:http://metalarea.org/forum/style_images/flags/France.png)
*Format: mp3@CBR320kbps
*Size: 110MB

Tracklist:
01. Fate & Triumph
02. Rise To Glory
03. Timescape
04. Shades Of Existence
05. Steelbirds
06. Foreshadowed Sands
07. Valkyrie Ride
08. Mechanical Tyranny
09. Crystal Warrior
******************************
Total playing time: 47:18

Technical info
(IMG:http://metalarea.org/images/spectrogram/2021_Nov/c963b554ff1be445b2067d608e9e3125.png)
Input File: 02. Rise To Glory.mp3
Channels : 2
Sample Rate : 44100
Precision : 16-bit
Duration : 00:03:43.83 = 9870991 samples = 16787.4 CDDA sectors
File Size : 9.15M
Bit Rate : 327k
Sample Encoding: MPEG audio (layer I, II or III)
Comments :
Title=Rise To Glory
Artist=Crystal Throne
Album=Crystal Throne
Tracknumber=2
Year=2021-11-24
Discnumber=1



Register


Go to the top of the page
  Insert nick Quick quote
+Quote Post
 
Start new topic
Replies (1 - 2)
post Nov 25 2021, 02:30:27
Post #2

Group: Подсевший
Posts: 31
Releases: 0
On Forums: 14 years 2 days
Thanks: 18 time(s)
Russian Federation




"TRVE heavy metal from France. Progressive vibes and 80s spirit. Our mission is to bring back melodic and technical music in order to rule the world."
Сильное заявление.



Go to the top of the page
  Insert nick Quick quote
+Quote Post
post Nov 25 2021, 07:10:50
Post #3

Девять Литров
*********
Group: Металариец
Posts: 932
Releases: 48
From: Ивантеевка, Московская область
On Forums: 14 years 5 months
Thanks: 1023 time(s)
Russian Federation


ЦИТАТА(Deadly1989 @ Nov 25 2021, 04:30:27) *
Сильное заявление.

Заявление действительно сильное, при том, что представленный в клипе трек не сносит крышу, а всего лишь неплох.
Go to the top of the page
  Insert nick Quick quote
+Quote Post

Reply to this topicStart new topic
1 User(s) are reading this topic (1 Guests and 0 Anonymous Users)
0 Members:

 



- Lo-Fi Version Support form
Copyrights and abuse reports form
Time is now: 25th May 2022 - 04:01:47