Welcome Guest ( Log In | Register )

> Releases Upload / Добавление релизов

Добавить релиз тут / Click here to add release
Рекомендованные обменники / Recommended file shares

 
Reply to this topicStart new topic
> Ewige Eiche - Wohl Dem, Der Heimat Weiß (2021), Atmospheric Black Metal
post Nov 24 2021, 05:53:04
Post #1

Мегаманьяк
***********
Group: Металариец
Posts: 1,690
Releases: 551
On Forums: 11 years 1 week
Thanks: 11837 time(s)
Italy


(IMG:https://metalarea.org/images/audiocovers/2021_Nov/acov_tid358752_thumb.jpg)

*Artist: Ewige Eiche
*Album: Wohl Dem, Der Heimat Weiß
*Year: 2021
*Genre: Atmospheric Black Metal
*Country: Germany (IMG:https://metalarea.org/forum/style_images/flags/Germany.png)
*Format: mp3@CBR320kbps
*Size: 79MB

Tracklist:
01.Die Gedanken Sind Frei 05:28
02.Wohl Dem, Der Heimat Weiß 08:09
03.Befreiung 06:53
04.Einklang 07:31
05.Sturmfest 06:57
******************************
Total playing time: 34:58



Technical info
(IMG:https://metalarea.org/images/spectrogram/2021_Nov/9641935975288f457b19cb6627094aa9.png)
Input File: 02. Wohl Dem, Der Heimat Weiß cut.mp3
Channels : 2
Sample Rate : 44100
Precision : 16-bit
Duration : 00:04:11.16 = 11075936 samples = 18836.6 CDDA sectors
File Size : 10.0M
Bit Rate : 320k
Sample Encoding: MPEG audio (layer I, II or III)
Comments :
Title=Wohl Dem, Der Heimat Weiß
Artist=Ewige Eiche
Album=Wohl Dem, Der Heimat Weiß
Tracknumber=02
Year=2021
Genre=Atmospheric / Pagan Black Metal



Register


Go to the top of the page
  Insert nick Quick quote
+Quote Post

Reply to this topicStart new topic
1 User(s) are reading this topic (1 Guests and 0 Anonymous Users)
0 Members:

 



- Lo-Fi Version Support form
Copyrights and abuse reports form
Time is now: 29th November 2021 - 06:33:58