Welcome Guest ( Log In | Register )

> Releases Upload / Добавление релизов

Добавить релиз тут / Click here to add release
Рекомендованные обменники / Recommended file shares

 
Reply to this topicStart new topic
> Exalted Sigil - Hell's Alchymist [ep] (2021), Blackened/Progressive Death Metal
post Nov 24 2021, 06:41:55
Post #1

Правь статус, ####!111
**************
Group: Металариец
Posts: 28,136
Releases: 20530
From: Г.Харьков
On Forums: 9 years 6 months
Thanks: 417913 time(s)
Unknown


(IMG:https://metalarea.org/images/audiocovers/2021_Nov/acov_tid358753_thumb.jpg)

*Artist: Exalted Sigil
*Album: Hell's Alchymist [ep]
*Year: 2021
*Genre: Blackened/Progressive Death Metal
*Country: United States (IMG:https://metalarea.org/forum/style_images/flags/United%20States.png)
*Format: mp3@CBR320kbps
*Size: 73MB

Tracklist:
01. Awaken the Jinn
02. Malvisitant
03. Murdercastle
04. Lord Turned Terror
05. Hell's Alchymist
06. The Toymaker
07. Labrinthian
******************************
Total playing time: 31:55




Extended info
Kyle "Caliboy" Calandrelle All instruments (2019-present)
See also: Jupiter's Wake
Kyle "Lord Bile" Myers Vocals, Lyrics (2019-present)
See also: Disseverment


Technical info
(IMG:https://metalarea.org/images/spectrogram/2021_Nov/3131ab272ab18b52c8a239109f6f0acd.png)
Input File: 07 - Labrinthian.mp3
Channels : 2
Sample Rate : 44100
Precision : 16-bit
Duration : 00:05:38.15 = 14912283 samples = 25361 CDDA sectors
File Size : 13.5M
Bit Rate : 320k
Sample Encoding: MPEG audio (layer I, II or III)
Comments :
Title=Labrinthian
Artist=Exalted Sigil
Album=Hell's Alchymist
Tracknumber=7
Year=2021-21-20



Register


Go to the top of the page
  Insert nick Quick quote
+Quote Post

Reply to this topicStart new topic
1 User(s) are reading this topic (1 Guests and 0 Anonymous Users)
0 Members:

 



- Lo-Fi Version Support form
Copyrights and abuse reports form
Time is now: 29th November 2021 - 06:46:49