Welcome Guest ( Log In | Register )

> Releases Upload / Добавление релизов

Добавить релиз тут / Click here to add release
Рекомендованные обменники / Recommended file shares

 
Reply to this topicStart new topic
> Fatal Death - Muerte Al Falso Poder​!​! (2020), Thrash Metal
post Nov 24 2021, 07:35:49
Post #1

Правь статус, ####!111
**************
Group: Металариец
Posts: 28,136
Releases: 20530
From: Г.Харьков
On Forums: 9 years 6 months
Thanks: 417913 time(s)
Unknown


(IMG:https://metalarea.org/images/audiocovers/2021_Nov/acov_tid358754_thumb.jpg)

*Artist: Fatal Death
*Album: Muerte Al Falso Poder​!​!
*Year: 2020
*Genre: Thrash Metal
*Country: Peru (IMG:https://metalarea.org/forum/style_images/flags/Peru.png)
*Format: mp3@CBR320kbps
*Size: 57MB

Tracklist:
1. Muerte al Falso Poder 03:19
2. Ejecutor 03:33
3. Invasión 03:55
4. Mentes Putrefactas 03:07
5. Extorsión 03:59
6. Ataque Brutal 03:37
7. Muerte Fatal 02:53
******************************
Total playing time: 24:23




Extended info
Erik Solano Drums (2016-present)
Bryan Atapoma Guitars (2016-present)
Freddy Guevara Guitars, Vocals (2016-present)
Bernardo Guzmán Bass (2017-present)



Technical info
(IMG:https://metalarea.org/images/spectrogram/2021_Nov/9588286849b791bd86407ff4b269bb21.png)
Input File: 05 - Extorsión.mp3
Channels : 2
Sample Rate : 44100
Precision : 16-bit
Duration : 00:04:00.00 = 10584000 samples = 18000 CDDA sectors
File Size : 9.75M
Bit Rate : 325k
Sample Encoding: MPEG audio (layer I, II or III)
Comments :
Title=Extorsión
Artist=Fatal Death
Album=Muerte al Falso Poder!!
Tracknumber=5/1



Register


Go to the top of the page
  Insert nick Quick quote
+Quote Post

Reply to this topicStart new topic
1 User(s) are reading this topic (1 Guests and 0 Anonymous Users)
0 Members:

 



- Lo-Fi Version Support form
Copyrights and abuse reports form
Time is now: 29th November 2021 - 06:57:30