Welcome Guest ( Log In | Register )

> Releases Upload / Добавление релизов

Добавить релиз тут / Click here to add release
Рекомендованные обменники / Recommended file shares

 
Reply to this topicStart new topic
> Senarius - Grim [ep] (2021), Death Metal
post Nov 24 2021, 08:59:42
Post #1

Правь статус, ####!111
**************
Group: Металариец
Posts: 28,136
Releases: 20530
From: Г.Харьков
On Forums: 9 years 6 months
Thanks: 417913 time(s)
Unknown


(IMG:https://metalarea.org/images/audiocovers/2021_Nov/acov_tid358755_thumb.jpg)

*Artist: Senarius
*Album: Grim [ep]
*Year: 2021
*Genre: Death Metal
*Country: United States (IMG:https://metalarea.org/forum/style_images/flags/United%20States.png)
*Format: mp3@CBR320kbps
*Size: 71MB

Tracklist:
01. Thoughts and Prayers
02. Black Widow
03. Death Kiss
04. Eternal Misery
05. Flame of Hatred
06. Descent Into Madness
07. Revelation
******************************
Total playing time: 30:15



Extended info
Vocals and Artwork - Jesse Michael
Guitar - Devin Vogan
Guitar - Marcus James Treat
Bass - Taylor Crone
Drums - Kale Schelin



Technical info
(IMG:https://metalarea.org/images/spectrogram/2021_Nov/407beae3bdc091062104e4ed33ffe8e9.png)
Input File: 07 - Revelation.mp3
Channels : 2
Sample Rate : 44100
Precision : 16-bit
Duration : 00:05:38.51 = 14928423 samples = 25388.5 CDDA sectors
File Size : 13.8M
Bit Rate : 326k
Sample Encoding: MPEG audio (layer I, II or III)
Comments :
Title=Revelation
Artist=Senarius
Album=Grim
Tracknumber=7/1



Register


Go to the top of the page
  Insert nick Quick quote
+Quote Post

Reply to this topicStart new topic
1 User(s) are reading this topic (1 Guests and 0 Anonymous Users)
0 Members:

 



- Lo-Fi Version Support form
Copyrights and abuse reports form
Time is now: 29th November 2021 - 07:11:15