Welcome Guest ( Log In | Register )

> Releases Upload / Добавление релизов

Добавить релиз тут / Click here to add release
Рекомендованные обменники / Recommended file shares

> Forbidden Omen - Ancestral Rituals (2021), Melodic Death Metal
post Nov 24 2021, 12:07:19
Post #1

Правь статус, ####!111
**************
Group: Металариец
Posts: 28,136
Releases: 20530
From: Г.Харьков
On Forums: 9 years 6 months
Thanks: 417913 time(s)
Unknown


(IMG:https://metalarea.org/images/audiocovers/2021_Nov/acov_tid358756_thumb.jpg)

*Artist: Forbidden Omen
*Album: Ancestral Rituals
*Year: 2021
*Genre: Melodic Death Metal
*Country: Poland (IMG:https://metalarea.org/forum/style_images/flags/Poland.png)
*Format: mp3@CBR320kbps
*Size: 65MB

Tracklist:
1. The Call (Intro)
2. Slavic Blood
3. Ashen Kong
4. Svarog
5. Veles
6. Hail the God of War
7. Fractured Sky Ritual
******************************
Total playing time: 27:43




Extended info
Szymon Iwulski Bass
Alp Hazer Drums
Krzysztof Leja Guitars
See also: ex-Chaos Territory, ex-Skyanger
Jarosław Kopka Guitars
Piotr Stachowicz Vocal


Technical info
(IMG:https://metalarea.org/images/spectrogram/2021_Nov/6af3a0a0e25b3daa579b51047f5c521a.png)
Input File: 07 - Fractured Sky Ritual.mp3
Channels : 2
Sample Rate : 44100
Precision : 16-bit
Duration : 00:05:06.80 = 13529968 samples = 23010.1 CDDA sectors
File Size : 12.5M
Bit Rate : 325k
Sample Encoding: MPEG audio (layer I, II or III)
Comments :
Title=Fractured Sky Ritual
Artist=Forbidden Omen
Album=Ancestral Rituals
Tracknumber=7
Year=2021



Register


Go to the top of the page
  Insert nick Quick quote
+Quote Post
 
Start new topic
Replies (1 - 3)
post Nov 25 2021, 17:01:09
Post #2

Ёлд ХеллоВяйне
Group Icon
Group: V.I.P
Posts: 32,326
Releases: 144
From: Питер
On Forums: 15 years 1 month
Thanks: 20265 time(s)
Russian Federation


Актуальное превью:



Неинтересно.
Go to the top of the page
  Insert nick Quick quote
+Quote Post
post Nov 25 2021, 17:04:54
Post #3

Common dweller of hell
**************
Group: Металариец
Posts: 4,110
Releases: 12
From: Dnipro
On Forums: 13 years 4 months
Thanks: 1609 time(s)
Ukraine



Go to the top of the page
  Insert nick Quick quote
+Quote Post
post Nov 26 2021, 20:53:21
Post #4

MDM-Thrash Metal
**************
Group: Металариец
Posts: 10,695
Releases: 1345
From: Одесса
On Forums: 14 years 3 months
Thanks: 32487 time(s)
Ukraine


Preview of all 8 tracks
Go to the top of the page
  Insert nick Quick quote
+Quote Post

Reply to this topicStart new topic
1 User(s) are reading this topic (1 Guests and 0 Anonymous Users)
0 Members:

 



- Lo-Fi Version Support form
Copyrights and abuse reports form
Time is now: 29th November 2021 - 07:18:57