Welcome Guest ( Log In | Register )

> Releases Upload / Добавление релизов

Добавить релиз тут / Click here to add release
Рекомендованные обменники / Recommended file shares

> Hierarchical Punishment - Psychotic Disorders (2021), Death Metal (D4)
post Nov 24 2021, 13:57:02
Post #1

Мегаманьяк
***********
Group: Металариец
Posts: 1,692
Releases: 552
On Forums: 11 years 1 week
Thanks: 11838 time(s)
Italy


(IMG:https://metalarea.org/images/audiocovers/2021_Nov/acov_tid358757_thumb.jpg)

*Artist: Hierarchical Punishment
*Album: Psychotic Disorders
*Year: 2021
*Genre: Death Metal
*Country: Brazil (IMG:https://metalarea.org/forum/style_images/flags/Brazil.png)
*Format: mp3@CBR320kbps
*Size: 93MB

Tracklist:
1.Don't Look Back 04:00
2.Escape The Fate 03:23
3.Angels And Demons 03:06
4.Emotional Evisceration 02:13
5.The Darkness 03:07
6.Human Nature 02:05
7.The Choice 02:50
8.Madness 04:15
9.Moment Of Truth 03:22
10.Road 01:12
11.Memories 02:24
12.Turning Point 07:25
******************************
Total playing time: 39:22



Technical info
(IMG:https://metalarea.org/images/spectrogram/2021_Nov/c0a65cc22e2752c293c1e47dab1a196f.png)
Input File: 04. Emotional Evisceration.mp3
Channels : 2
Sample Rate : 44100
Precision : 16-bit
Duration : 00:02:13.60 = 5891760 samples = 10020 CDDA sectors
File Size : 5.60M
Bit Rate : 335k
Sample Encoding: MPEG audio (layer I, II or III)
Comments :
Title=Emotional Evisceration
Artist=Hierarchical Punishment
Album=Psychotic Disorders
Tracknumber=04
Year=2021
Genre=Death Metal



Register


Go to the top of the page
  Insert nick Quick quote
+Quote Post
 
Start new topic
Replies (1 - 1)
post Nov 25 2021, 06:36:52
Post #2

Мегаманьяк
***********
Group: Металариец
Posts: 1,692
Releases: 552
On Forums: 11 years 1 week
Thanks: 11838 time(s)
Italy


FLAC 310MB
Register


Thanks:
(3) caro, Marek, wreak,
Go to the top of the page
  Insert nick Quick quote
+Quote Post

Reply to this topicStart new topic
1 User(s) are reading this topic (1 Guests and 0 Anonymous Users)
0 Members:

 



- Lo-Fi Version Support form
Copyrights and abuse reports form
Time is now: 29th November 2021 - 07:31:30