Welcome Guest ( Log In | Register )

> Releases Upload / Добавление релизов

Добавить релиз тут / Click here to add release
Рекомендованные обменники / Recommended file shares

 
Reply to this topicStart new topic
> Kalmankantaja - Veri Josta Routa Kasvaa [single] (2021), Atmospheric Black Metal (D)
post Nov 24 2021, 14:09:11
Post #1

Мегаманьяк
***********
Group: Металариец
Posts: 1,692
Releases: 552
On Forums: 11 years 1 week
Thanks: 11838 time(s)
Italy


(IMG:https://metalarea.org/images/audiocovers/2021_Nov/acov_tid358758_thumb.jpg)

*Artist: Kalmankantaja
*Album: Veri Josta Routa Kasvaa [single]
*Year: 2021
*Genre: Atmospheric Black Metal
*Country: Finland (IMG:https://metalarea.org/forum/style_images/flags/Finland.png)
*Format: mp3@CBR320kbps
*Size: 27MB

Tracklist:
01. Veri Josta Routa Kasvaa 11:42
******************************
Total playing time: 11:42



Technical info
(IMG:https://metalarea.org/images/spectrogram/2021_Nov/4db90109b3e8c57b43749f82fbe7017e.png)
Input File: Kalmankantaja - Veri Josta Routa Kasvaa cut.mp3
Channels : 2
Sample Rate : 44100
Precision : 16-bit
Duration : 00:02:29.17 = 6578265 samples = 11187.5 CDDA sectors
File Size : 5.97M
Bit Rate : 320k
Sample Encoding: MPEG audio (layer I, II or III)
Comments :
Title=Veri Josta Routa Kasvaa
Artist=Kalmankantaja
Album=Veri Josta Routa Kasvaa
Tracknumber=01
Year=2021
Genre=Black Metal



Register


Go to the top of the page
  Insert nick Quick quote
+Quote Post

Reply to this topicStart new topic
1 User(s) are reading this topic (1 Guests and 0 Anonymous Users)
0 Members:

 



- Lo-Fi Version Support form
Copyrights and abuse reports form
Time is now: 29th November 2021 - 07:42:24