Welcome Guest ( Log In | Register )

> Releases Upload / Добавление релизов

Добавить релиз тут / Click here to add release
Рекомендованные обменники / Recommended file shares

 
Reply to this topicStart new topic
> Return To Flame - Rise [ep] (2021), Melodic Death Metal
post Nov 24 2021, 15:47:24
Post #1

Serial Uploader
Group Icon
Group: V.I.P
Posts: 37,884
Releases: 36046
From: Lithuania
On Forums: 13 years 5 months
Thanks: 439697 time(s)
Lithuania


(IMG:https://metalarea.org/images/audiocovers/2021_Nov/acov_tid358759_thumb.jpg)

*Artist: Return To Flame
*Album: Rise [ep]
*Year: 2021
*Genre: Melodic Death Metal
*Country: United States (IMG:https://metalarea.org/forum/style_images/flags/United%20States.png)
*Format: mp3@CBR320kbps
*Size: 66MB

Tracklist:
01. Rise 01:16
02. Conquer 04:57
03. Above The Flames 04:25
04. Fallen Gods 03:54
05. Phoenix Ignition 05:23
06. Break Away 03:35
07. Truth 04:20
******************************
Total playing time: 27:50


(IMG:https://metalarea.org/images/youtube.png)

Technical info
(IMG:https://metalarea.org/images/spectrogram/2021_Nov/12cc0c57c166c6c9652c830dfa0030c8.png)
Input File: 02 - Conquer.mp3
Channels : 2
Sample Rate : 44100
Precision : 16-bit
Duration : 00:04:57.00 = 13097700 samples = 22275 CDDA sectors
File Size : 12.1M
Bit Rate : 326k
Sample Encoding: MPEG audio (layer I, II or III)
Comments :
Title=Conquer
Artist=Return To Flame
Album=Rise
Tracknumber=2
Year=2021-11-21
Genre=Metal
Discnumber=1



Register


Go to the top of the page
  Insert nick Quick quote
+Quote Post

Reply to this topicStart new topic
1 User(s) are reading this topic (1 Guests and 0 Anonymous Users)
0 Members:

 



- Lo-Fi Version Support form
Copyrights and abuse reports form
Time is now: 29th November 2021 - 05:46:04