Welcome Guest ( Log In | Register )

> Releases Upload / Добавление релизов

Добавить релиз тут / Click here to add release
Рекомендованные обменники / Recommended file shares

 
Reply to this topicStart new topic
> Fate Unburied - A Pale Color Perception: Observant [ep] (2021), Groove/Death Metal
post Nov 24 2021, 15:58:15
Post #1

Serial Uploader
Group Icon
Group: V.I.P
Posts: 37,884
Releases: 36046
From: Lithuania
On Forums: 13 years 5 months
Thanks: 439698 time(s)
Lithuania


(IMG:https://metalarea.org/images/audiocovers/2021_Nov/acov_tid358760_thumb.jpg)

*Artist: Fate Unburied
*Album: A Pale Color Perception: Observant [ep]
*Year: 2021
*Genre: Groove/Death Metal
*Country: Italy (IMG:https://metalarea.org/forum/style_images/flags/Italy.png)
*Format: mp3@CBR320kbps
*Size: 44MB

Tracklist:
1. A Closer Light 05:42
2. Too Many Bodies 04:53
3. Servant 06:15
4. River 02:21
******************************
Total playing time: 19:11





Technical info
(IMG:https://metalarea.org/images/spectrogram/2021_Nov/316ce87f44d5cbfd92a9fd052f8bff5e.png)
Input File: 02 - Too Many Bodies.mp3
Channels : 2
Sample Rate : 44100
Precision : 16-bit
Duration : 00:04:53.37 = 12937793 samples = 22003 CDDA sectors
File Size : 11.8M
Bit Rate : 322k
Sample Encoding: MPEG audio (layer I, II or III)
Comments :
Title=Too Many Bodies
Artist=Fate Unburied
Album=A Pale Color Perception: Observant
Tracknumber=2
Year=2021
Discnumber=1/1



Register


Go to the top of the page
  Insert nick Quick quote
+Quote Post

Reply to this topicStart new topic
1 User(s) are reading this topic (1 Guests and 0 Anonymous Users)
0 Members:

 



- Lo-Fi Version Support form
Copyrights and abuse reports form
Time is now: 29th November 2021 - 07:14:23