Welcome Guest ( Log In | Register )

> Releases Upload / Добавление релизов

Добавить релиз тут / Click here to add release
Рекомендованные обменники / Recommended file shares

 
Reply to this topicStart new topic
> Grand Finale - Everything Has An End [ep] (2021), Symphonic Power Metal
post Nov 24 2021, 16:05:38
Post #1

Serial Uploader
Group Icon
Group: V.I.P
Posts: 37,884
Releases: 36046
From: Lithuania
On Forums: 13 years 5 months
Thanks: 439348 time(s)
Lithuania


(IMG:https://metalarea.org/images/audiocovers/2021_Nov/acov_tid358761_thumb.jpg)

*Artist: Grand Finale
*Album: Everything Has An End [ep]
*Year: 2021
*Genre: Symphonic Power Metal
*Country: Japan (IMG:https://metalarea.org/forum/style_images/flags/Japan.png)
*Format: mp3@CBR320kbps
*Size: 56MB

Tracklist:
01. Everything Has An End 5:26
02. Never Be Alone 3:56
03. Don't Give Up 4:25
04. The Master Of My Fate (New Recording) 4:39
05. Kodokunohana (New Recording) 5:50
******************************
Total playing time: 24:16


(IMG:https://metalarea.org/images/youtube.png)

Technical info
(IMG:https://metalarea.org/images/spectrogram/2021_Nov/2efe84f37f7c92c003ac9b772d6d1845.png)
Input File: 02 - Never Be Alone.mp3
Channels : 2
Sample Rate : 44100
Precision : 16-bit
Duration : 00:03:56.42 = 10426298 samples = 17731.8 CDDA sectors
File Size : 9.52M
Bit Rate : 322k
Sample Encoding: MPEG audio (layer I, II or III)
Comments :
Title=Never Be Alone
Artist=Grand Finale
Album=Everything Has An End
Tracknumber=2
Year=2021
Discnumber=1/1



Register


Go to the top of the page
  Insert nick Quick quote
+Quote Post

Reply to this topicStart new topic
2 User(s) are reading this topic (2 Guests and 0 Anonymous Users)
0 Members:

 



- Lo-Fi Version Support form
Copyrights and abuse reports form
Time is now: 27th November 2021 - 00:41:56