Welcome Guest ( Log In | Register )

> Releases Upload / Добавление релизов

Добавить релиз тут / Click here to add release
Рекомендованные обменники / Recommended file shares

 
Reply to this topicStart new topic
> Grand Finale - Quantum Moment (2020), Symphonic Power Metal
post Nov 24 2021, 16:16:14
Post #1

Serial Uploader
Group Icon
Group: V.I.P
Posts: 37,884
Releases: 36046
From: Lithuania
On Forums: 13 years 5 months
Thanks: 439348 time(s)
Lithuania


(IMG:https://metalarea.org/images/audiocovers/2021_Nov/acov_tid358762_thumb.jpg)

*Artist: Grand Finale
*Album: Quantum Moment
*Year: 2020
*Genre: Symphonic Power Metal
*Country: Japan (IMG:https://metalarea.org/forum/style_images/flags/Japan.png)
*Format: mp3@CBR320kbps
*Size: 113MB

Tracklist:
01. Human 05:24
02. World of Glory 05:03
03. Fly to the Shangri-La 05:10
04. Silent God 07:12
05. 君は鳥 05:02
06. Fly Away 03:56
07. Moment 04:34
08. Again 04:55
09. Unchanging Days 04:20
10. The Last One 04:57
11. This Is Amazing 05:30
******************************
Total playing time: 56:03


(IMG:https://metalarea.org/images/youtube.png)

Technical info
(IMG:https://metalarea.org/images/spectrogram/2021_Nov/5e8f0e3a7999031b5170702089805a03.png)
Input File: 11 This Is Amazing.mp3
Channels : 2
Sample Rate : 44100
Precision : 16-bit
Duration : 00:05:30.00 = 14553000 samples = 24750 CDDA sectors
File Size : 13.2M
Bit Rate : 320k
Sample Encoding: MPEG audio (layer I, II or III)
Comments :
Title=This Is Amazing
Artist=Grand Finale
Album=Quantum Moment
Tracknumber=11
Year=2020
Genre=Metal & Hard Rock



Register


Go to the top of the page
  Insert nick Quick quote
+Quote Post

Reply to this topicStart new topic
2 User(s) are reading this topic (2 Guests and 0 Anonymous Users)
0 Members:

 



- Lo-Fi Version Support form
Copyrights and abuse reports form
Time is now: 27th November 2021 - 00:54:11