Welcome Guest ( Log In | Register )

> Releases Upload / Добавление релизов

Добавить релиз тут / Click here to add release
Рекомендованные обменники / Recommended file shares

> Barfaani Reech Ajao - Khaagaye (2021), Heavy/Progressive Metal
post Nov 24 2021, 16:27:49
Post #1

Serial Uploader
Group Icon
Group: V.I.P
Posts: 37,884
Releases: 36046
From: Lithuania
On Forums: 13 years 5 months
Thanks: 439352 time(s)
Lithuania


(IMG:https://metalarea.org/images/audiocovers/2021_Nov/acov_tid358763_thumb.jpg)

*Artist: Barfaani Reech Ajao
*Album: Khaagaye
*Year: 2021
*Genre: Heavy/Progressive Metal
*Country: Pakistan (IMG:https://metalarea.org/forum/style_images/flags/Pakistan.png)
*Format: mp3@CBR320kbps
*Size: 122MB

Tracklist:
01. Aagaye. 04:50
02. Ab Kya Hua? 03:33
03. Sajan 03:46
04. Dukh Machine 03:52
05. Darbadar 04:54
06. Manchala 04:17
07. Inteqaam 04:24
08. Buddhu 03:44
09. Ajnabi 04:26
10. Shikwa 05:25
11. Dukh Machine II (Hungama) 04:44
12. Shehr-e-Afsos 04:37
******************************
Total playing time: 52:32


Preview 2
(IMG:https://metalarea.org/images/youtube.png)

Technical info
(IMG:https://metalarea.org/images/spectrogram/2021_Nov/e98d9e95689a7688100c535cee53075e.png)
Input File: 02 - Ab Kya Hua_.mp3
Channels : 2
Sample Rate : 44100
Precision : 16-bit
Duration : 00:03:32.00 = 9349200 samples = 15900 CDDA sectors
File Size : 8.67M
Bit Rate : 327k
Sample Encoding: MPEG audio (layer I, II or III)
Comments :
Title=Ab Kya Hua?
Artist=Barfaani Reech Ajao
Album=Khaagaye
Tracknumber=2
Year=2021-11-20
Genre=Metal
Discnumber=1



Register


Go to the top of the page
  Insert nick Quick quote
+Quote Post
 
Start new topic
Replies (1 - 1)
post Nov 25 2021, 15:36:06
Post #2

Четыре Литра
****
Group: Металариец
Posts: 393
Releases: 0
From: Сибирь
On Forums: 10 years 8 months
Thanks: 130 time(s)
Russian Federation


instrumental


Thanks:
Go to the top of the page
  Insert nick Quick quote
+Quote Post

Reply to this topicStart new topic
2 User(s) are reading this topic (2 Guests and 0 Anonymous Users)
0 Members:

 



- Lo-Fi Version Support form
Copyrights and abuse reports form
Time is now: 27th November 2021 - 01:06:25