Welcome Guest ( Log In | Register )

> Releases Upload / Добавление релизов

Добавить релиз тут / Click here to add release
Рекомендованные обменники / Recommended file shares

 
Reply to this topicStart new topic
> Sereignos - Total Havoc (2014), Black/Death Metal (D4)
post Nov 24 2021, 17:03:52
Post #1

Serial Uploader
Group Icon
Group: V.I.P
Posts: 37,884
Releases: 36046
From: Lithuania
On Forums: 13 years 5 months
Thanks: 439698 time(s)
Lithuania


(IMG:https://metalarea.org/images/audiocovers/2021_Nov/acov_tid358764_thumb.jpg)

*Artist: Sereignos
*Album: Total Havoc
*Year: 2014
*Genre: Black/Death Metal
*Country: Indonesia (IMG:https://metalarea.org/forum/style_images/flags/Indonesia.png)
*Format: mp3@CBR320kbps
*Size: 96MB

Tracklist:
01. Budhal (Intro) 01:43
02. Roh Api 04:30
03. Exterminate The Human Race 02:51
04. UN-R 04:31
05. Total Havoc 04:00
06. Daulat Belizzuriah 04:02
07. Hymn Sujudmaut 03:24
08. Eksistensi Kebiadaban 02:32
09. Evilgas Terror 02:20
10. Freedom (Autro) 01:24
11. Atomik Predator Palangsabit (Bonus Track) 02:46
12. Devilust Abomination (Bonus Track) 04:15
13. Seven Sacrifice (Bonus Track) 03:02
******************************
Total playing time: 41:20

(IMG:https://metalarea.org/images/myspace.png)



(IMG:https://metalarea.org/images/youtube.png)

Extended info
Exclusive for Metalarea.org


Technical info
(IMG:https://metalarea.org/images/spectrogram/2021_Nov/83d69cbd456c67138f255d18d791a036.png)
Input File: 02. Roh Api.mp3
Channels : 2
Sample Rate : 44100
Precision : 16-bit
Duration : 00:04:30.98 = 11950350 samples = 20323.7 CDDA sectors
File Size : 11.0M
Bit Rate : 324k
Sample Encoding: MPEG audio (layer I, II or III)
Comments :
Title=Roh Api
Artist=Sereignos
Album=SAT094: Sereignos - Total Havoc (2014)
Tracknumber=2
Year=2014



Register


Go to the top of the page
  Insert nick Quick quote
+Quote Post

Reply to this topicStart new topic
1 User(s) are reading this topic (1 Guests and 0 Anonymous Users)
0 Members:

 



- Lo-Fi Version Support form
Copyrights and abuse reports form
Time is now: 29th November 2021 - 05:56:55