Welcome Guest ( Log In | Register )

> Releases Upload / Добавление релизов

Добавить релиз тут / Click here to add release
Рекомендованные обменники / Recommended file shares

 
Reply to this topicStart new topic
> Graves - Ascensão Do Impiedoso [demo] (2019), Black Metal (D4)
post Nov 24 2021, 21:02:43
Post #1

𝕻𝕬𝕹𝕬𝕮𝕰𝕬
*********
Group: Металариец
Posts: 986
Releases: 585
On Forums: 9 years 5 months
Thanks: 10927 time(s)
Unknown


(IMG:http://metalarea.org/images/audiocovers/2021_Nov/acov_tid358765_thumb.jpg)

*Artist: Graves
*Album: Ascensão Do Impiedoso [demo]
*Year: 2019
*Genre: Black Metal
*Country: Portugal (IMG:http://metalarea.org/forum/style_images/flags/Portugal.png)
*Format: mp3@CBR320kbps
*Size: 56MB

Tracklist:
1. Ventos Negros Da Morte 04:26
2. Destruição Da Sagrada Mentira 04:11
3. Ascensão Do Impiedoso 03:31
4. Mórbido Amanhecer 04:26
5. Profanação Eterna 05:10
6. Alquimia Do Sofrimento 02:56
7. Pela Luz Negra 07:48
******************************
Total playing time: 32:28



Extended info
Limited edition cassette of 100 copies.
Released by War Arts Productions.


Technical info
(IMG:http://metalarea.org/images/spectrogram/2021_Nov/3b913e0b84f17559b9c47d49fb140f30.png)
Input File: 06 - Alquimia Do Sofrimento.mp3
Channels : 2
Sample Rate : 44100
Precision : 16-bit
Duration : 00:02:55.89 = 7756529 samples = 13191.4 CDDA sectors
File Size : 7.03M
Bit Rate : 320k
Sample Encoding: MPEG audio (layer I, II or III)
Comments :
Title=Alquimia Do Sofrimento
Artist=Graves
Album=Ascensao Do Impiedoso
Tracknumber=6
Year=2019
Genre=Black Metal



Register


Go to the top of the page
  Insert nick Quick quote
+Quote Post

Reply to this topicStart new topic
1 User(s) are reading this topic (1 Guests and 0 Anonymous Users)
0 Members:

 



- Lo-Fi Version Support form
Copyrights and abuse reports form
Time is now: 29th November 2021 - 06:12:49