Welcome Guest ( Log In | Register )

> Releases Upload / Добавление релизов

Добавить релиз тут / Click here to add release
Рекомендованные обменники / Recommended file shares

 
Reply to this topicStart new topic
> Congenital Deformity - Sacrifice [demo] (2020), Death Metal
post Nov 24 2021, 21:07:23
Post #1

𝕻𝕬𝕹𝕬𝕮𝕰𝕬
*********
Group: Металариец
Posts: 986
Releases: 585
On Forums: 9 years 5 months
Thanks: 10900 time(s)
Unknown


(IMG:http://metalarea.org/images/audiocovers/2021_Nov/acov_tid358766_thumb.jpg)

*Artist: Congenital Deformity
*Album: Sacrifice [demo]
*Year: 2020
*Genre: Death Metal
*Country: Italy (IMG:http://metalarea.org/forum/style_images/flags/Italy.png)
*Format: mp3@CBR320kbps
*Size: 39MB

Tracklist:
1. Chainsaw Surgery 04:01
2. Sacrifice 04:26
3. Funeral Torments 04:01
4. Despising Life 04:02
******************************
Total playing time: 16:30




Technical info
(IMG:http://metalarea.org/images/spectrogram/2021_Nov/6818a62a285fc282f9c9a4f87e229c8d.png)
Input File: 01 - Chainsaw Surgery.mp3
Channels : 2
Sample Rate : 44100
Precision : 16-bit
Duration : 00:04:01.36 = 10644020 samples = 18102.1 CDDA sectors
File Size : 9.75M
Bit Rate : 323k
Sample Encoding: MPEG audio (layer I, II or III)
Comments :
Title=Chainsaw Surgery
Artist=Congenital Deformity
Album=Sacrifice
Tracknumber=1
Year=2020
Genre=Death Metal



Register


Go to the top of the page
  Insert nick Quick quote
+Quote Post

Reply to this topicStart new topic
2 User(s) are reading this topic (2 Guests and 0 Anonymous Users)
0 Members:

 



- Lo-Fi Version Support form
Copyrights and abuse reports form
Time is now: 27th November 2021 - 01:41:57