Welcome Guest ( Log In | Register )

> Releases Upload / Добавление релизов

Добавить релиз тут / Click here to add release
Рекомендованные обменники / Recommended file shares

 
Reply to this topicStart new topic
> Hexenbann - Before Darkness Surrounds Us (2021), Black Metal
post Nov 25 2021, 05:18:47
Post #1

Мегаманьяк
***********
Group: Металариец
Posts: 1,666
Releases: 548
On Forums: 11 years 1 week
Thanks: 11724 time(s)
Italy


(IMG:https://metalarea.org/images/audiocovers/2021_Nov/acov_tid358768_thumb.jpg)

*Artist: Hexenbann
*Album: Before Darkness Surrounds Us
*Year: 2021
*Genre: Black Metal
*Country: Spain (IMG:https://metalarea.org/forum/style_images/flags/Spain.png)
*Format: mp3@CBR320kbps
*Size: 98MB

Tracklist:
1.Eternal Silence 03:12
2.Narural Spell 03:19
3.Agony of the Sun 04:21
4.Delusion 04:04
5.The Night I Lay in the Forest (My Death) 05:15
6.Lady of the Drak 05:16
7.Behind the Clouds 04:41
8.Puer Natus Est Morti 03:42
l9.Orbis Alius 09:56
******************************
Total playing time: 43:46



Technical info
(IMG:https://metalarea.org/images/spectrogram/2021_Nov/f564ba730795ba79dccbcec7c30a1407.png)
Input File: 08. Puer Natus Est Morti.mp3
Channels : 2
Sample Rate : 44100
Precision : 16-bit
Duration : 00:03:36.07 = 9528819 samples = 16205.5 CDDA sectors
File Size : 8.64M
Bit Rate : 320k
Sample Encoding: MPEG audio (layer I, II or III)
Comments :
Title=Puer Natus Est Morti
Artist=Hexenbann
Album=Before Darkness Surrounds Us
Tracknumber=08
Year=2021
Genre=Black Metal



Register


Go to the top of the page
  Insert nick Quick quote
+Quote Post

Reply to this topicStart new topic
2 User(s) are reading this topic (2 Guests and 0 Anonymous Users)
0 Members:

 



- Lo-Fi Version Support form
Copyrights and abuse reports form
Time is now: 27th November 2021 - 00:07:24