Welcome Guest ( Log In | Register )

> Releases Upload / Добавление релизов

Добавить релиз тут / Click here to add release
Рекомендованные обменники / Recommended file shares

 
Reply to this topicStart new topic
> Jugulator - Under The Verdict (2021), Thrash Metal
post Yesterday, 07:58:39
Post #1

Правь статус, ####!111
**************
Group: Металариец
Posts: 28,129
Releases: 20522
From: Г.Харьков
On Forums: 9 years 6 months
Thanks: 417290 time(s)
Unknown


(IMG:https://metalarea.org/images/audiocovers/2021_Nov/acov_tid358771_thumb.jpg)

*Artist: Jugulator
*Album: Under The Verdict
*Year: 2021
*Genre: Thrash Metal
*Country: Algeria (IMG:https://metalarea.org/forum/style_images/flags/Algeria.png)
*Format: mp3@CBR320kbps
*Size: 104MB

Tracklist:
1. Strangers Conflict
2. Who Will Save Us
3. Civil War
4. Sunseth
5. Crysis
6. Blood On The Red Flag
7. Nuclearus
******************************
Total playing time: 45:22




Extended info
Black Bear Bass
Abderezzak Yahimi Drums
Death Corpse Guitars (rhythm)
Ramzy Curse Vocals, Guitars
See also: Korsan, Lelahell


Technical info
(IMG:https://metalarea.org/images/spectrogram/2021_Nov/90b1e42b6e50f7bfdcd32db01ee94889.png)
Input File: 07 - Nuclearus.mp3
Channels : 2
Sample Rate : 44100
Precision : 16-bit
Duration : 00:06:54.77 = 18291313 samples = 31107.7 CDDA sectors
File Size : 16.7M
Bit Rate : 321k
Sample Encoding: MPEG audio (layer I, II or III)
Comments :
Title=Nuclearus
Artist=Jugulator
Album=Under The Verdict
Tracknumber=7/7
Year=2021



Register


Go to the top of the page
  Insert nick Quick quote
+Quote Post

Reply to this topicStart new topic
2 User(s) are reading this topic (2 Guests and 0 Anonymous Users)
0 Members:

 



- Lo-Fi Version Support form
Copyrights and abuse reports form
Time is now: 26th November 2021 - 23:48:28