Welcome Guest ( Log In | Register )

> Morgul Blade - Fell Sorcery Abounds (2021), Heavy Metal
post Nov 25 2021, 08:15:19
Post #1

Правь статус, ####!111
**************
Group: Металариец
Posts: 29,954
Releases: 22044
From: Г.Харьков
On Forums: 10 years 3 months
Thanks: 458680 time(s)
Unknown


(IMG:https://metalarea.org/images/audiocovers/2021_Nov/acov_tid358772_thumb.jpg)

*Artist: Morgul Blade
*Album: Fell Sorcery Abounds
*Year: 2021
*Genre: Heavy Metal
*Country: United States (IMG:https://metalarea.org/forum/style_images/flags/United%20States.png)
*Format: mp3@CBR320kbps
*Size: 88MB

Tracklist:
1. He Who Sits Upon the Black Throne of Angmar / The Morgul Blade 04:31
2. A Last Waltz of Gevaudan 04:24
3. In the Grip of the Dark Lord 05:38
4. Sons of the Night 02:37
5. Oak in the Mist 02:36
6. The Five Will Ride at Dawn 05:17
7. The Beacons Must Be Lit! 04:39
8. Blood Has Been Spilled This Night 02:23
9. Fell Sorcery Abounds 06:10
******************************
Total playing time: 38:15




Extended info
Will Spectre Drums, Synth
See also: Heavy Temple
Jep Guitars, Synth
Dan JD Vocals, Bass
Klauf Vocals, Guitars, Synth
Spectre Drums (2020-present)


Technical info
(IMG:https://metalarea.org/images/spectrogram/2021_Nov/db458c6b131574297ab0a0c740b0e12a.png)
Input File: 06. The Five Will Ride at Dawn.mp3
Channels : 2
Sample Rate : 44100
Precision : 16-bit
Duration : 00:05:17.10 = 13983890 samples = 23782.1 CDDA sectors
File Size : 12.8M
Bit Rate : 323k
Sample Encoding: MPEG audio (layer I, II or III)
Comments :
Title=The Five Will Ride at Dawn
Artist=Morgul Blade
Album=Fell Sorcery Abounds
Tracknumber=6
Year=2021-11-25
Discnumber=1



Register


Go to the top of the page
  Insert nick Quick quote
+Quote Post
 
Start new topic
Replies (1 - 3)
post Nov 27 2021, 09:01:49
Post #2

Common dweller of hell
**************
Group: Металариец
Posts: 4,344
Releases: 12
From: Dnipro
On Forums: 14 years 1 month
Thanks: 1722 time(s)
Ukraine


Heavy/Black Metal
Go to the top of the page
  Insert nick Quick quote
+Quote Post
post Dec 10 2021, 07:44:54
Post #3

добрый мизантроп
**************
Group: Металариец
Posts: 3,109
Releases: 1
From: Менск
On Forums: 11 years 9 months
Thanks: 1379 time(s)
Madagascar


great album, all about being dark and epic.
Go to the top of the page
  Insert nick Quick quote
+Quote Post
post Jan 22 2022, 07:56:06
Post #4

i listen to black metal
**************
Group: Металариец
Posts: 3,360
Releases: 144
From: Москва
On Forums: 15 years 7 months
Thanks: 2451 time(s)
Russian Federation


ЦИТАТА(Storky @ Dec 10 2021, 09:44:54) *
great album, all about being dark and epic.

(IMG:style_emoticons/default/1488.gif) никак с языком не разберёшься ?
пиши на одном....
Go to the top of the page
  Insert nick Quick quote
+Quote Post

Reply to this topicStart new topic
1 User(s) are reading this topic (1 Guests and 0 Anonymous Users)
0 Members:

 



- Lo-Fi Version Support form
Copyrights and abuse reports form
Time is now: 17th August 2022 - 04:34:35