Welcome Guest ( Log In | Register )

> Releases Upload / Добавление релизов

Добавить релиз тут / Click here to add release
Рекомендованные обменники / Recommended file shares

> Fane - Solitude (2021), Doom Metal/Sludge
post Nov 25 2021, 09:54:13
Post #1

Правь статус, ####!111
**************
Group: Металариец
Posts: 28,129
Releases: 20522
From: Г.Харьков
On Forums: 9 years 6 months
Thanks: 417302 time(s)
Unknown


(IMG:https://metalarea.org/images/audiocovers/2021_Nov/acov_tid358773_thumb.jpg)

*Artist: Fane
*Album: Solitude
*Year: 2021
*Genre: Doom Metal/Sludge
*Country: United States (IMG:https://metalarea.org/forum/style_images/flags/United%20States.png)
*Format: mp3@CBR320kbps
*Size: 117MB

Tracklist:
1. Gnawed 06:14
2. The Hunt 08:36
3. Chorus of severed heads 06:07
4. Crystal seer 07:02
5. Hooves 02:35
6. Void embrace 08:33
7. Violent divide 11:59
******************************
Total playing time: 51:06




Technical info
(IMG:https://metalarea.org/images/spectrogram/2021_Nov/417edc4acb67e78076e0395386b95fbd.png)
Input File: 07 - Violent Divide.mp3
Channels : 2
Sample Rate : 44100
Precision : 16-bit
Duration : 00:11:59.87 = 31746267 samples = 53990.2 CDDA sectors
File Size : 28.9M
Bit Rate : 321k
Sample Encoding: MPEG audio (layer I, II or III)
Comments :
Title=Violent Divide
Artist=Fane
Album=Solitude
Tracknumber=7/7
Year=2021



Register


Go to the top of the page
  Insert nick Quick quote
+Quote Post
 
Start new topic
Replies (1 - 1)
post Nov 25 2021, 20:30:21
Post #2

Правь статус, ####!111
**************
Group: Металариец
Posts: 49,519
Releases: 891
On Forums: 12 years 5 months
Thanks: 45507 time(s)
Russian Federation


На фоне множества четверостортов и банальностей в стилевой нише достаточно живенько и не шаблонно лабают, судя по паре треков, что послушал на бэндкампе. Качаю альбус.

Флак не подгонишь для вящего удовольствия? (IMG:style_emoticons/default/smile1.gif)
Go to the top of the page
  Insert nick Quick quote
+Quote Post

Reply to this topicStart new topic
1 User(s) are reading this topic (1 Guests and 0 Anonymous Users)
0 Members:

 



- Lo-Fi Version Support form
Copyrights and abuse reports form
Time is now: 27th November 2021 - 00:43:15