Welcome Guest ( Log In | Register )

> Releases Upload / Добавление релизов

Добавить релиз тут / Click here to add release
Рекомендованные обменники / Recommended file shares

 
Reply to this topicStart new topic
> Genophobic Perversion - The Art Of Catalepsy (2021), Goregrind/Brutal Death Metal (D4)
post Nov 25 2021, 11:55:07
Post #1

Мегаманьяк
***********
Group: Металариец
Posts: 1,666
Releases: 548
On Forums: 11 years 1 week
Thanks: 11724 time(s)
Italy


(IMG:https://metalarea.org/images/audiocovers/2021_Nov/acov_tid358774_thumb.jpg)

*Artist: Genophobic Perversion
*Album: The Art Of Catalepsy
*Year: 2021
*Genre: Goregrind/Brutal Death Metal
*Country: United States (IMG:https://metalarea.org/forum/style_images/flags/United%20States.png)
*Format: mp3@CBR320kbps
*Size: 75MB

Tracklist:
1.Contort 04:23
2.Oxidize 02:34
3.Neutralize 02:20
4.Throttle 03:16
5.Obliterate 02:26
6.Regurgitate 04:31
7.Terrorize 03:07
8.Exterminate 02:28
9.Dispose 07:18
******************************
Total playing time: 32:23



Technical info
(IMG:https://metalarea.org/images/spectrogram/2021_Nov/3b5c8920d912f151c80d82fd6fafd4b3.png)
Input File: 03. Neutralize.mp3
Channels : 2
Sample Rate : 44100
Precision : 16-bit
Duration : 00:02:20.39 = 6191287 samples = 10529.4 CDDA sectors
File Size : 5.62M
Bit Rate : 320k
Sample Encoding: MPEG audio (layer I, II or III)
Comments :
Title=Neutralize
Artist=Genophobic Perversion
Album=The Art of Catalepsy
Tracknumber=03
Year=2021
Genre=Avant-Garde Metal/Sludge/Goregrind



Register


Go to the top of the page
  Insert nick Quick quote
+Quote Post

Reply to this topicStart new topic
2 User(s) are reading this topic (2 Guests and 0 Anonymous Users)
0 Members:

 



- Lo-Fi Version Support form
Copyrights and abuse reports form
Time is now: 27th November 2021 - 00:24:13