Welcome Guest ( Log In | Register )

> Releases Upload / Добавление релизов

Добавить релиз тут / Click here to add release
Рекомендованные обменники / Recommended file shares

 
Reply to this topicStart new topic
> Olio Tähtien Takana - Spectral Katharsis (2021), Atmospheric Black Metal
post Nov 25 2021, 12:00:54
Post #1

Все люди - черви.
**********
Group: Металариец
Posts: 1,219
Releases: 158
From: Пхёнъян, Северная Корея
On Forums: 8 years 10 months
Thanks: 4861 time(s)
North Korea


(IMG:https://metalarea.org/images/audiocovers/2021_Nov/acov_tid358775_thumb.jpg)

*Artist: Olio Tähtien Takana
*Album: Spectral Katharsis
*Year: 2021
*Genre: Atmospheric Black Metal
*Country: Finland (IMG:https://metalarea.org/forum/style_images/flags/Finland.png)
*Format: mp3@CBR320kbps
*Size: 123MB

Tracklist:
1. Intro - Enter the Maw of Souls 01:55
2. Towards the Dying Moon 05:16
3. Excrucior 04:43
4. A Sorcery Written in Stars 04:51
5. Prophecies of Pandemonium 04:31
6. Veri Kirotussa Yössä 03:47
7. The Servant's Heart 04:57
8. Journey to the Most High 04:13
9. The Labyrinth of Sleepless Dead 03:54
10. Spectral Katharsis 08:10
11. Ego Aeternum 03:50
12. Outro - Into the Everlasting Shadow 03:49
******************************
Total playing time: 53:56


(IMG:https://metalarea.org/images/youtube.png)

Technical info
(IMG:https://metalarea.org/images/spectrogram/2021_Nov/46b66415c97208bf1438d4d37b660f62.png)
Input File: 02 Towards the Dying Moon.mp3
Channels : 2
Sample Rate : 44100
Precision : 16-bit
Duration : 00:05:16.11 = 13940539 samples = 23708.4 CDDA sectors
File Size : 12.7M
Bit Rate : 320k
Sample Encoding: MPEG audio (layer I, II or III)
Comments :
Title=Towards the Dying Moon
Artist=Olio Tähtien Takana
Album=Spectral Katharsis
Tracknumber=2/12
Year=2021
Genre=Black Metal



Register


Go to the top of the page
  Insert nick Quick quote
+Quote Post

Reply to this topicStart new topic
1 User(s) are reading this topic (1 Guests and 0 Anonymous Users)
0 Members:

 



- Lo-Fi Version Support form
Copyrights and abuse reports form
Time is now: 27th November 2021 - 01:09:44