Welcome Guest ( Log In | Register )

> Releases Upload / Добавление релизов

Добавить релиз тут / Click here to add release
Рекомендованные обменники / Recommended file shares

> Olio Tähtien Takana - Spectral Katharsis (2021), Atmospheric Black Metal
post Nov 25 2021, 12:00:54
Post #1

Все люди - черви.
**********
Group: Металариец
Posts: 1,224
Releases: 158
From: Пхёнъян, Северная Корея
On Forums: 9 years 2 weeks
Thanks: 4887 time(s)
North Korea


(IMG:https://metalarea.org/images/audiocovers/2021_Nov/acov_tid358775_thumb.jpg)

*Artist: Olio Tähtien Takana
*Album: Spectral Katharsis
*Year: 2021
*Genre: Atmospheric Black Metal
*Country: Finland (IMG:https://metalarea.org/forum/style_images/flags/Finland.png)
*Format: mp3@CBR320kbps
*Size: 123MB

Tracklist:
1. Intro - Enter the Maw of Souls 01:55
2. Towards the Dying Moon 05:16
3. Excrucior 04:43
4. A Sorcery Written in Stars 04:51
5. Prophecies of Pandemonium 04:31
6. Veri Kirotussa Yössä 03:47
7. The Servant's Heart 04:57
8. Journey to the Most High 04:13
9. The Labyrinth of Sleepless Dead 03:54
10. Spectral Katharsis 08:10
11. Ego Aeternum 03:50
12. Outro - Into the Everlasting Shadow 03:49
******************************
Total playing time: 53:56


(IMG:https://metalarea.org/images/youtube.png)

Technical info
(IMG:https://metalarea.org/images/spectrogram/2021_Nov/46b66415c97208bf1438d4d37b660f62.png)
Input File: 02 Towards the Dying Moon.mp3
Channels : 2
Sample Rate : 44100
Precision : 16-bit
Duration : 00:05:16.11 = 13940539 samples = 23708.4 CDDA sectors
File Size : 12.7M
Bit Rate : 320k
Sample Encoding: MPEG audio (layer I, II or III)
Comments :
Title=Towards the Dying Moon
Artist=Olio Tähtien Takana
Album=Spectral Katharsis
Tracknumber=2/12
Year=2021
Genre=Black Metal



Register


Go to the top of the page
  Insert nick Quick quote
+Quote Post
 
Start new topic
Replies (1 - 4)
post Dec 10 2021, 08:23:09
Post #2

добрый мизантроп
**************
Group: Металариец
Posts: 2,772
Releases: 1
From: Менск
On Forums: 11 years 2 months
Thanks: 1218 time(s)
Madagascar


(IMG:style_emoticons/default/true_black.gif) (IMG:style_emoticons/default/true_black.gif) (IMG:style_emoticons/default/true_black.gif)


Thanks:
(1) Occultas,
Go to the top of the page
  Insert nick Quick quote
+Quote Post
post Dec 14 2021, 12:51:26
Post #3

Шесть Литров
******
Group: Металариец
Posts: 586
Releases: 0
From: Vilnius
On Forums: 14 years 11 months
Thanks: 193 time(s)
Lithuania


Отличный атмосферик, чуть не пропустил - спасибо
Go to the top of the page
  Insert nick Quick quote
+Quote Post
post Dec 14 2021, 13:57:26
Post #4

Маньяк
**********
Group: Металариец
Posts: 1,327
Releases: 1
From: Беларусь
On Forums: 14 years 1 week
Thanks: 564 time(s)
Russian Federation


Totally Limbonic Art worship! Very good!
Go to the top of the page
  Insert nick Quick quote
+Quote Post
post Jan 16 2022, 13:50:20
Post #5

Old School Metal
**************
Group: Металариец
Posts: 4,185
Releases: 0
From: г. Минск
On Forums: 12 years 10 months
Thanks: 10275 time(s)
Belarus


Lossless: FLAC (tracks)
Register


Thanks:
(1) Korpse,
Go to the top of the page
  Insert nick Quick quote
+Quote Post

Reply to this topicStart new topic
1 User(s) are reading this topic (1 Guests and 0 Anonymous Users)
0 Members:

 



- Lo-Fi Version Support form
Copyrights and abuse reports form
Time is now: 19th January 2022 - 17:23:22