Welcome Guest ( Log In | Register )

> Releases Upload / Добавление релизов

Добавить релиз тут / Click here to add release
Рекомендованные обменники / Recommended file shares

> Rhapsody Of Fire - Glory For Salvation (2021), Symphonic Power Metal (D)
post Yesterday, 12:15:40
Post #1

Serial Uploader
Group Icon
Group: V.I.P
Posts: 37,884
Releases: 36046
From: Lithuania
On Forums: 13 years 5 months
Thanks: 439339 time(s)
Lithuania


(IMG:https://metalarea.org/images/audiocovers/2021_Nov/acov_tid358778_thumb.jpg)

*Artist: Rhapsody Of Fire
*Album: Glory For Salvation
*Year: 2021
*Genre: Symphonic Power Metal
*Country: Italy (IMG:https://metalarea.org/forum/style_images/flags/Italy.png)
*Format: mp3@CBR320kbps
*Size: 159MB

Tracklist:
01. Son of Vengeance 05:46
02. The Kingdom of Ice 04:25
03. Glory for Salvation 05:04
04. Eternal Snow 01:33
05. Terial the Hawk 04:49
06. Maid of the Secret Sand 05:07
07. Abyss of Pain II 10:44
08. Infinitae Gloriae 04:31
09. Magic Signs 04:52
10. I'll Be Your Hero 05:29
11. Chains of Destiny 03:55
12. Un'ode per l'eroe 04:51
13. La esencia de un rey 04:51
******************************
Total playing time: 1:05:57

(IMG:https://metalarea.org/images/myspace.png)

Preview 3
(IMG:https://metalarea.org/images/youtube.png)

Technical info
(IMG:https://metalarea.org/images/spectrogram/2021_Nov/0d46519bb72a08b7ba80e63d7a41bb25.png)
Input File: 02 - The Kingdom of Ice.mp3
Channels : 2
Sample Rate : 44100
Precision : 16-bit
Duration : 00:04:25.00 = 11686500 samples = 19875 CDDA sectors
File Size : 10.8M
Bit Rate : 327k
Sample Encoding: MPEG audio (layer I, II or III)
Comments :
Title=The Kingdom of Ice
Artist=Rhapsody of Fire
Album=Glory for Salvation
Tracknumber=2
Year=2021-11-26
Discnumber=1



Register


Go to the top of the page
  Insert nick Quick quote
+Quote Post
 
Start new topic
Replies (1 - 8)
post Yesterday, 18:16:09
Post #2

Семь Литров
*******
Group: Металариец
Posts: 796
Releases: 0
From: Sweden
On Forums: 12 years 8 months
Thanks: 24 time(s)
Sweden


Thank you.

(It says there's a virus.)
Go to the top of the page
  Insert nick Quick quote
+Quote Post
post Yesterday, 18:32:16
Post #3

Тридцать лет на борту "Тяжёлого" крейсера
**************
Group: Металариец
Posts: 2,751
Releases: 0
From: Питер
On Forums: 14 years 5 months
Thanks: 859 time(s)
Russian Federation


Ну, пару-тройку треков, пожалуй, можно записать в зачетный лист, не больше
И как же не хватает им Фабио..ну, и остальных
Go to the top of the page
  Insert nick Quick quote
+Quote Post
post Yesterday, 18:34:30
Post #4

Литр
*
Group: Подсевший
Posts: 75
Releases: 0
On Forums: 14 years 9 months
Thanks: 20 time(s)
Russian Federation


ох, а этого говна и даром не надо, драконы, магия, рыцари, тьфу срамота
видел клип - хорошо прочистил желудок.
Go to the top of the page
  Insert nick Quick quote
+Quote Post
post Yesterday, 19:56:55
Post #5

И Ван Дамм По Делам Вашим!
**************
Group: Металариец
Posts: 20,123
Releases: 26
On Forums: 13 years 4 months
Thanks: 11375 time(s)
Honduras


А мечи у них по прежнему из папье маше?)


Thanks:
Go to the top of the page
  Insert nick Quick quote
+Quote Post
post Yesterday, 21:47:10
Post #6

21st Century Schizoid Man
**************
Group: Металариец
Posts: 7,021
Releases: 85
From: Pdmsk
On Forums: 13 years 6 months
Thanks: 5930 time(s)
Russian Federation


Картонные.
Go to the top of the page
  Insert nick Quick quote
+Quote Post
post Today, 16:41:16
Post #7

Два Литра
**
Group: Завсегдатай
Posts: 183
Releases: 0
On Forums: 13 years 2 months
Thanks: 151 time(s)
Russian Federation


Кому в эпоху метавселенных и VR нужны мечи из пенопласта и прочих поролонов? Они давно не дети. Только световые, только хардкор.
Go to the top of the page
  Insert nick Quick quote
+Quote Post
post Today, 17:01:26
Post #8

Правдоруб)
**************
Group: Металариец
Posts: 2,447
Releases: 1
From: Украина, Днепр
On Forums: 8 years 5 months
Thanks: 2031 time(s)
Ukraine


Так по составу - это уже совсем другая группа. Ещё и без Фабио... Не, спасибо - не стану и время тратить.
Go to the top of the page
  Insert nick Quick quote
+Quote Post
post Today, 21:53:28
Post #9

Шесть Литров
******
Group: Металариец
Posts: 598
Releases: 0
From: Москва
On Forums: 15 years 1 month
Thanks: 128 time(s)
Russian Federation


Отличный крепкий альбом, вокалист спел на достойном группы уровне и сонграйтинг не подкачал. Magic Signs - прекрасная баллада.
Go to the top of the page
  Insert nick Quick quote
+Quote Post

Reply to this topicStart new topic
1 User(s) are reading this topic (1 Guests and 0 Anonymous Users)
0 Members:

 



- Lo-Fi Version Support form
Copyrights and abuse reports form
Time is now: 26th November 2021 - 23:43:36