Welcome Guest ( Log In | Register )

> Releases Upload / Добавление релизов

Добавить релиз тут / Click here to add release
Рекомендованные обменники / Recommended file shares

> Eternity's End - Embers Of War (2021), Progressive Power/Speed Metal
post Yesterday, 12:16:46
Post #1

Правь статус, ####!111
**************
Group: Металариец
Posts: 28,129
Releases: 20522
From: Г.Харьков
On Forums: 9 years 6 months
Thanks: 417290 time(s)
Unknown


(IMG:https://metalarea.org/images/audiocovers/2021_Nov/acov_tid358779_thumb.jpg)

*Artist: Eternity's End
*Album: Embers Of War
*Year: 2021
*Genre: Progressive Power/Speed Metal
*Country: Germany (IMG:https://metalarea.org/forum/style_images/flags/Germany.png)
*Format: mp3@CBR320kbps
*Size: 105MB

Tracklist:
01. Dreadnought (The Voyage of the Damned) 05:19
02. Bane of the Black Sword 04:50
03. Hounds of Tindalos 04:34
04. Call of the Valkyries 05:24
05. Arcturus Prime 05:54
06. Shaded Heart 05:17
07. Deathrider 04:25
08. Embers of War 09:30
******************************
Total playing time: 45:13




Extended info
Linus Klausenitzer Bass
Hannes Grossmann Drums
Christian Münzner Guitars, Keyboards
Iuri Sanson Vocals (lead)
Justin Hombach Guitars


Technical info
(IMG:https://metalarea.org/images/spectrogram/2021_Nov/08ce90c16797c7ef008282ef770daa89.png)
Input File: 08 - Embers of War.mp3
Channels : 2
Sample Rate : 44100
Precision : 16-bit
Duration : 00:09:30.13 = 25142601 samples = 42759.5 CDDA sectors
File Size : 23.0M
Bit Rate : 323k
Sample Encoding: MPEG audio (layer I, II or III)
Comments :
Title=Embers of War
Artist=Eternity's End
Album=Embers of War
Tracknumber=8/8
Year=2021



Register


Go to the top of the page
  Insert nick Quick quote
+Quote Post
 
Start new topic
Replies (1 - 1)
post Yesterday, 18:20:12
Post #2

Семь Литров
*******
Group: Металариец
Posts: 796
Releases: 0
From: Sweden
On Forums: 12 years 8 months
Thanks: 24 time(s)
Sweden


Thank you.
Go to the top of the page
  Insert nick Quick quote
+Quote Post

Reply to this topicStart new topic
1 User(s) are reading this topic (1 Guests and 0 Anonymous Users)
0 Members:

 



- Lo-Fi Version Support form
Copyrights and abuse reports form
Time is now: 26th November 2021 - 23:58:00