Welcome Guest ( Log In | Register )

> Releases Upload / Добавление релизов

Добавить релиз тут / Click here to add release
Рекомендованные обменники / Recommended file shares

> Eternity's End - Embers Of War (2021), Progressive Power/Speed Metal
post Nov 25 2021, 12:16:46
Post #1

Правь статус, ####!111
**************
Group: Металариец
Posts: 28,564
Releases: 20905
From: Г.Харьков
On Forums: 9 years 8 months
Thanks: 427351 time(s)
Unknown


(IMG:https://metalarea.org/images/audiocovers/2021_Nov/acov_tid358779_thumb.jpg)

*Artist: Eternity's End
*Album: Embers Of War
*Year: 2021
*Genre: Progressive Power/Speed Metal
*Country: Germany (IMG:https://metalarea.org/forum/style_images/flags/Germany.png)
*Format: mp3@CBR320kbps
*Size: 105MB

Tracklist:
01. Dreadnought (The Voyage of the Damned) 05:19
02. Bane of the Black Sword 04:50
03. Hounds of Tindalos 04:34
04. Call of the Valkyries 05:24
05. Arcturus Prime 05:54
06. Shaded Heart 05:17
07. Deathrider 04:25
08. Embers of War 09:30
******************************
Total playing time: 45:13




Extended info
Linus Klausenitzer Bass
Hannes Grossmann Drums
Christian Münzner Guitars, Keyboards
Iuri Sanson Vocals (lead)
Justin Hombach Guitars


Technical info
(IMG:https://metalarea.org/images/spectrogram/2021_Nov/08ce90c16797c7ef008282ef770daa89.png)
Input File: 08 - Embers of War.mp3
Channels : 2
Sample Rate : 44100
Precision : 16-bit
Duration : 00:09:30.13 = 25142601 samples = 42759.5 CDDA sectors
File Size : 23.0M
Bit Rate : 323k
Sample Encoding: MPEG audio (layer I, II or III)
Comments :
Title=Embers of War
Artist=Eternity's End
Album=Embers of War
Tracknumber=8/8
Year=2021



Register


Go to the top of the page
  Insert nick Quick quote
+Quote Post
 
Start new topic
Replies (1 - 5)
post Nov 25 2021, 18:20:12
Post #2

Восемь Литров
********
Group: Металариец
Posts: 800
Releases: 0
From: Sweden
On Forums: 12 years 10 months
Thanks: 25 time(s)
Sweden


Thank you.
Go to the top of the page
  Insert nick Quick quote
+Quote Post
post Nov 29 2021, 20:17:43
Post #3

ЗмееЛев
********
Group: Металариец
Posts: 893
Releases: 18
On Forums: 10 years 9 months
Thanks: 2062 time(s)
Russian Federation


Знатное гитарное поливалово конечно. Миллион мелодий, по большей части крутых, на высоких скоростях, ни намёка на размазывание соплей по грифу гитары. Есть небольшой передых в Embers of War, но при такой длине песни это просто мимолётно. Альбом напичкан боевиками, которые проносятся влёт. Гитаристы изливают риффы от души. Вокал мне местами нравится, местами нет. Не могу про него ничего сказать, всё таки павер слушаю редко. Но всё же здесь музыка на первом плане.

С группой познакомился на прошлом альбоме из-за участия в ней уважаемых людей. Там уже было хорошо, сабж же вообще вышка. Лучший альбом группы на сегодня, кмк.


Thanks:
(1) Storky,
Go to the top of the page
  Insert nick Quick quote
+Quote Post
post Dec 8 2021, 13:35:10
Post #4

добрый мизантроп
**************
Group: Металариец
Posts: 2,780
Releases: 1
From: Менск
On Forums: 11 years 2 months
Thanks: 1219 time(s)
Madagascar


Один из самых внушительных Павер релизов вообще. Глыба мелодик метала. Длиннющие соляки, даже на басухе, прекрасная запись всего, просто кайфуешь от ПШ и кардана и звучания всех инструментов. Сам вокал сначала показался посредственным, но примерно с третей песни стало норм, даже хорошо. Было даже плюсом, когда мотивы узнавались. А сами риффы весьма оригинальные. 10/10


Thanks:
(1) borovik,
Go to the top of the page
  Insert nick Quick quote
+Quote Post
post Dec 14 2021, 16:09:09
Post #5

21st Century Schizoid Man
**************
Group: Металариец
Posts: 7,126
Releases: 89
From: Pdmsk
On Forums: 13 years 8 months
Thanks: 6034 time(s)
Russian Federation


Вокал-то хероват.


Thanks:
(1) Shadowman,
Go to the top of the page
  Insert nick Quick quote
+Quote Post
post Dec 30 2021, 14:22:46
Post #6

Ъ
**************
Group: Металариец
Posts: 10,905
Releases: 9
On Forums: 13 years 2 weeks
Thanks: 2202 time(s)
Sweden


Вокал все портит, хотя паливают и правда весьма изобильно.
Go to the top of the page
  Insert nick Quick quote
+Quote Post

Reply to this topicStart new topic
1 User(s) are reading this topic (1 Guests and 0 Anonymous Users)
0 Members:

 



- Lo-Fi Version Support form
Copyrights and abuse reports form
Time is now: 21st January 2022 - 18:32:50