Welcome Guest ( Log In | Register )

> Releases Upload / Добавление релизов

Добавить релиз тут / Click here to add release
Рекомендованные обменники / Recommended file shares

> Black Label Society - Doom Crew Inc. (2021), Southern/Groove Metal (D)
post Nov 25 2021, 12:23:26
Post #1

Serial Uploader
Group Icon
Group: V.I.P
Posts: 37,884
Releases: 36046
From: Lithuania
On Forums: 13 years 5 months
Thanks: 439348 time(s)
Lithuania


(IMG:https://metalarea.org/images/audiocovers/2021_Nov/acov_tid358781_thumb.jpg)

*Artist: Black Label Society
*Album: Doom Crew Inc.
*Year: 2021
*Genre: Southern/Groove Metal
*Country: United States (IMG:https://metalarea.org/forum/style_images/flags/United%20States.png)
*Format: mp3@CBR320kbps
*Size: 152MB

Tracklist:
01. Set You Free 03:58
02. Destroy & Conquer 04:41
03. You Made Me Want to Live 04:31
04. Forever and a Day 04:09
05. End of Days 05:22
06. Ruins 05:47
07. Forsaken 05:54
08. Love Reign Down 05:48
09. Gospel of Lies 06:32
10. Shelter Me 05:28
11. Gather All my Sins 04:18
12. Farewell Ballad 06:39
******************************
Total playing time: 1:03:07

(IMG:https://metalarea.org/images/myspace.png)



(IMG:https://metalarea.org/images/youtube.png)

Technical info
(IMG:https://metalarea.org/images/spectrogram/2021_Nov/b82b59ce2137d3760de6233bf276de3a.png)
Input File: 02 - Destroy & Conquer.mp3
Channels : 2
Sample Rate : 44100
Precision : 16-bit
Duration : 00:04:41.00 = 12392100 samples = 21075 CDDA sectors
File Size : 11.4M
Bit Rate : 325k
Sample Encoding: MPEG audio (layer I, II or III)
Comments :
Title=Destroy & Conquer
Artist=Black Label Society
Album=Doom Crew Inc.
Tracknumber=2
Year=2021-11-26
Discnumber=1



Register


Go to the top of the page
  Insert nick Quick quote
+Quote Post
 
Start new topic
Replies (1 - 5)
post Nov 25 2021, 19:48:30
Post #2

Правь статус, ####!111
**************
Group: Металариец
Posts: 49,519
Releases: 891
On Forums: 12 years 5 months
Thanks: 45507 time(s)
Russian Federation


Слушаю уже в третий раз - и сабж выглядит более энергичным, качёвым, чем предыдущие два (пусть и неплохих, но слишком уж лиричных) альбома. Здесь Закк как будто воспрял.

Конечно, до шедевральных альбомов 2000 и 2002 года тут невообразимо далеко, но то была совсем иная музыка.

Ожидал альбом и он получился лучше, чем первоначально рассчитывал, за что Бороде от меня спасибо!
Go to the top of the page
  Insert nick Quick quote
+Quote Post
post Nov 25 2021, 22:03:38
Post #3

Правь статус, ####!111
**************
Group: Металариец
Posts: 49,519
Releases: 891
On Forums: 12 years 5 months
Thanks: 45507 time(s)
Russian Federation


Don`t expect babanguida to cherish such albums (IMG:style_emoticons/default/25.gif)
Go to the top of the page
  Insert nick Quick quote
+Quote Post
post Yesterday, 13:37:13
Post #4

0%Tolerance
**********
Group: Металариец
Posts: 1,473
Releases: 0
On Forums: 9 years 2 months
Thanks: 279 time(s)
Unknown


Пургатень. Ф0натам стаффа и дум рога зайдёт.
Go to the top of the page
  Insert nick Quick quote
+Quote Post
post Yesterday, 14:09:20
Post #5

И Ван Дамм По Делам Вашим!
**************
Group: Металариец
Posts: 20,123
Releases: 26
On Forums: 13 years 4 months
Thanks: 11375 time(s)
Honduras


Зак, отменный гитарист , но его БЛС , вот вообще мимо. За то как он играл у Озика!


Thanks:
(1) avather,
Go to the top of the page
  Insert nick Quick quote
+Quote Post
post Yesterday, 14:15:50
Post #6

Правь статус, ####!111
**************
Group: Металариец
Posts: 49,519
Releases: 891
On Forums: 12 years 5 months
Thanks: 45507 time(s)
Russian Federation


ЦИТАТА(hammer @ Nov 26 2021, 16:09:20) *
За то как он играл у Озика!


И ещё сыграет. (IMG:style_emoticons/default/25.gif) Оззи официально подтвердил, что на его новом, готовящимся к выходу, релизу Закк сыграл все гитарные партии)
Go to the top of the page
  Insert nick Quick quote
+Quote Post

Reply to this topicStart new topic
2 User(s) are reading this topic (2 Guests and 0 Anonymous Users)
0 Members:

 



- Lo-Fi Version Support form
Copyrights and abuse reports form
Time is now: 27th November 2021 - 00:54:47