Welcome Guest ( Log In | Register )

> Releases Upload / Добавление релизов

Добавить релиз тут / Click here to add release
Рекомендованные обменники / Recommended file shares

 
Reply to this topicStart new topic
> Opera Diabolicus - Death On A Pale Horse (2021), Epic Heavy/Gothic/Doom/Progressive Metal
post Nov 25 2021, 12:32:34
Post #1

Правь статус, ####!111
**************
Group: Металариец
Posts: 28,129
Releases: 20522
From: Г.Харьков
On Forums: 9 years 6 months
Thanks: 417304 time(s)
Unknown


(IMG:https://metalarea.org/images/audiocovers/2021_Nov/acov_tid358782_thumb.jpg)

*Artist: Opera Diabolicus
*Album: Death On A Pale Horse
*Year: 2021
*Genre: Epic Heavy/Gothic/Doom/Progressive Metal
*Country: Sweden (IMG:https://metalarea.org/forum/style_images/flags/Sweden.png)
*Format: mp3@CBR320kbps
*Size: 136MB

Tracklist:
1. Listen Everybody 02:49
2. Bring Out Your Dead 05:24
3. Second Coming 09:50
4. Siren's Call 07:53
5. Darkest Doom on the Brightest of Days 07:34
6. A Song of Detestation 06:46
7. Little Sister 03:05
8. Night Demon 08:04
9. At Nighttime 07:43
******************************
Total playing time: 59:08



Extended info
Adrian de Crow Bass
David Grimoire Guitars (rhythm), Guitars (lead), Keyboards, Vocals (backing)


Technical info
(IMG:https://metalarea.org/images/spectrogram/2021_Nov/3cdca4a3cbbd2787955a1e06854eba13.png)
Input File: 08 - Night Demon.mp3
Channels : 2
Sample Rate : 44100
Precision : 16-bit
Duration : 00:08:04.52 = 21367288 samples = 36338.9 CDDA sectors
File Size : 19.5M
Bit Rate : 322k
Sample Encoding: MPEG audio (layer I, II or III)
Comments :
Title=Night Demon
Artist=Opera Diabolicus
Album=Death on a Pale Horse
Tracknumber=8/9
Year=2021



Register


Go to the top of the page
  Insert nick Quick quote
+Quote Post

Reply to this topicStart new topic
2 User(s) are reading this topic (2 Guests and 0 Anonymous Users)
0 Members:

 



- Lo-Fi Version Support form
Copyrights and abuse reports form
Time is now: 27th November 2021 - 01:07:04