Welcome Guest ( Log In | Register )

> Releases Upload / Добавление релизов

Добавить релиз тут / Click here to add release
Рекомендованные обменники / Recommended file shares

> Mental Devastation - The Delusional Mystery Of The Self Part I (2021), Thrash Metal
post Yesterday, 12:54:57
Post #1

Правь статус, ####!111
**************
Group: Металариец
Posts: 28,129
Releases: 20522
From: Г.Харьков
On Forums: 9 years 6 months
Thanks: 417290 time(s)
Unknown


(IMG:https://metalarea.org/images/audiocovers/2021_Nov/acov_tid358786_thumb.jpg)

*Artist: Mental Devastation
*Album: The Delusional Mystery Of The Self Part I
*Year: 2021
*Genre: Thrash Metal
*Country: Chile (IMG:https://metalarea.org/forum/style_images/flags/Chile.png)
*Format: mp3@CBR320kbps
*Size: 97MB

Tracklist:
1. Genesis
2. Ascension
3. Conquerors
4. Labyrinth
5. The Abyss
6. Vulcanic Eruption
7. Perpetual Dualities
8. Time's Echoes
9. Dans l'absurde
10. Reflections over the Veils of Death
******************************
Total playing time: 42:13




Extended info
Felipe Espinoza Guitars
Matías Morales Guitars
Alejandro Lagos Vocals, Bass
Nicolas Pastene Drums


Technical info
(IMG:https://metalarea.org/images/spectrogram/2021_Nov/36e1332decd76cd80d2570b1c2b28a76.png)
Input File: 05 - The Abyss.mp3
Channels : 2
Sample Rate : 44100
Precision : 16-bit
Duration : 00:05:26.39 = 14393843 samples = 24479.3 CDDA sectors
File Size : 13.1M
Bit Rate : 322k
Sample Encoding: MPEG audio (layer I, II or III)
Comments :
Title=The Abyss
Artist=Mental Devastation
Album=The Delusional Mystery of the Self (Part 1)
Tracknumber=5/10
Year=2021



Register


Go to the top of the page
  Insert nick Quick quote
+Quote Post
 
Start new topic
Replies (1 - 2)
post Today, 20:05:01
Post #2

Шесть Литров
******
Group: Металариец
Posts: 512
Releases: 0
From: Град Московский
On Forums: 13 years 10 months
Thanks: 136 time(s)
Russian Federation


СУПЕР!!!!!
Go to the top of the page
  Insert nick Quick quote
+Quote Post
post Today, 21:00:23
Post #3

MDM-Thrash Metal
**************
Group: Металариец
Posts: 10,691
Releases: 1345
From: Одесса
On Forums: 14 years 3 months
Thanks: 32474 time(s)
Ukraine


View of all 10 Tracks

Go to the top of the page
  Insert nick Quick quote
+Quote Post

Reply to this topicStart new topic
2 User(s) are reading this topic (2 Guests and 0 Anonymous Users)
0 Members:

 



- Lo-Fi Version Support form
Copyrights and abuse reports form
Time is now: 26th November 2021 - 23:55:51