Welcome Guest ( Log In | Register )

> Releases Upload / Добавление релизов

Добавить релиз тут / Click here to add release
Рекомендованные обменники / Recommended file shares

 
Reply to this topicStart new topic
> Godhead Machinery - Monotheistic Enslavement (2021), Black Metal (D4)
post Nov 25 2021, 13:12:31
Post #1

Serial Uploader
Group Icon
Group: V.I.P
Posts: 37,884
Releases: 36046
From: Lithuania
On Forums: 13 years 5 months
Thanks: 439346 time(s)
Lithuania


(IMG:https://metalarea.org/images/audiocovers/2021_Nov/acov_tid358788_thumb.jpg)

*Artist: Godhead Machinery
*Album: Monotheistic Enslavement
*Year: 2021
*Genre: Black Metal
*Country: Sweden (IMG:https://metalarea.org/forum/style_images/flags/Sweden.png)
*Format: mp3@CBR320kbps
*Size: 85MB

Tracklist:
1. Sovereign of Nullity 04:19
2. Ethereal 05:09
3. Dethroned 05:25
4. Orbis Non Sufficit 03:59
5. Upon His Deceitful Star 04:32
6. Helion 04:32
7. Monotheistic Enslavement 08:15
******************************
Total playing time: 36:11



(IMG:https://metalarea.org/images/youtube.png)

Technical info
(IMG:https://metalarea.org/images/spectrogram/2021_Nov/320a3c72df0e38a076760b41ccb468bc.png)
Input File: 02-godhead_machinery-ethereal-a7ec678f.mp3
Channels : 2
Sample Rate : 44100
Precision : 16-bit
Duration : 00:05:09.99 = 13670515 samples = 23249.2 CDDA sectors
File Size : 12.7M
Bit Rate : 327k
Sample Encoding: MPEG audio (layer I, II or III)
Comments :
Title=Ethereal
Artist=Godhead Machinery
Album=Monotheistic Enslavement
Tracknumber=2/7
Year=2021
Genre=Black Metal



Register


Go to the top of the page
  Insert nick Quick quote
+Quote Post

Reply to this topicStart new topic
2 User(s) are reading this topic (2 Guests and 0 Anonymous Users)
0 Members:

 



- Lo-Fi Version Support form
Copyrights and abuse reports form
Time is now: 27th November 2021 - 00:21:27