Welcome Guest ( Log In | Register )

> Releases Upload / Добавление релизов

Добавить релиз тут / Click here to add release
Рекомендованные обменники / Recommended file shares

 
Reply to this topicStart new topic
> Kryptonomicon - Nekromantikos (2021), Black/Death Metal
post Nov 25 2021, 13:19:53
Post #1

Правь статус, ####!111
**************
Group: Металариец
Posts: 28,129
Releases: 20522
From: Г.Харьков
On Forums: 9 years 6 months
Thanks: 417297 time(s)
Unknown


(IMG:https://metalarea.org/images/audiocovers/2021_Nov/acov_tid358789_thumb.jpg)

*Artist: Kryptonomicon
*Album: Nekromantikos
*Year: 2021
*Genre: Black/Death Metal
*Country: Italy (IMG:https://metalarea.org/forum/style_images/flags/Italy.png)
*Format: mp3@CBR320kbps
*Size: 112MB

Tracklist:
1. Nekromantikos
2. Nocturnal Kill
3. Baron Blood
4. Zeder
5. Blind Resurrected
6. The Omen
7. Timor Mortis Morte Pejor
8. Thousand Cats
9. The Ritual
10. Churchman
11. The Passion Of Lovers (Bauhaus cover)
******************************
Total playing time: 48:52




Extended info
Frank Ponga Bass, Vocals (backing)
Diego Rossi Drums
Stefano Rumich Guitars
Luca Sterle Vocals


Technical info
(IMG:https://metalarea.org/images/spectrogram/2021_Nov/228296f0f4ee6af18f3c75b9146ef7c1.png)
Input File: 07 - Timor Mortis Morte Pejor.mp3
Channels : 2
Sample Rate : 44100
Precision : 16-bit
Duration : 00:05:51.08 = 15482584 samples = 26330.9 CDDA sectors
File Size : 14.1M
Bit Rate : 322k
Sample Encoding: MPEG audio (layer I, II or III)
Comments :
Title=Timor Mortis Morte Pejor
Artist=Kryptonomicon
Album=Nekromantikos
Tracknumber=7/11
Year=2021



Register


Go to the top of the page
  Insert nick Quick quote
+Quote Post

Reply to this topicStart new topic
2 User(s) are reading this topic (2 Guests and 0 Anonymous Users)
0 Members:

 



- Lo-Fi Version Support form
Copyrights and abuse reports form
Time is now: 27th November 2021 - 00:31:13