Welcome Guest ( Log In | Register )

> Releases Upload / Добавление релизов

Добавить релиз тут / Click here to add release
Рекомендованные обменники / Recommended file shares

> Voices - Breaking The Trauma Bond (2021), Progressive Black/Death Metal (D6)
post Nov 25 2021, 13:26:07
Post #1

Правь статус, ####!111
**************
Group: Металариец
Posts: 28,129
Releases: 20522
From: Г.Харьков
On Forums: 9 years 6 months
Thanks: 417296 time(s)
Unknown


(IMG:https://metalarea.org/images/audiocovers/2021_Nov/acov_tid358790_thumb.jpg)

*Artist: Voices
*Album: Breaking The Trauma Bond
*Year: 2021
*Genre: Progressive Black/Death Metal
*Country: United Kingdom (IMG:https://metalarea.org/forum/style_images/flags/United%20Kingdom.png)
*Format: mp3@CBR320kbps
*Size: 158MB

Tracklist:
1. A Field Without Crows
2. Breaking the Trauma Bond
3. An Audience of Mannequins
4. Lilacs In-Between
5. Ghost City
6. Petrograph
7. Methods of Madness
8. Running Away
9. Absent Equilibrium
10. Beckoning Shadows
11. My Sick Mind
12. Whispers
13. The Widower
14. Kaleidoscope of Thorns
15. She Speaks to Him in a Dream
16. Photographs of a Storm Passing Overhead
******************************
Total playing time: 1:08:15



Extended info
Dan Abela Bass (2012-present)
See also: Sarah Jezebel Deva, ex-Dark Veil
David Gray Drums (2012-present)
See also: Akercocke, The Antichrist Imperium, ex-Church of Satan, ex-Salem Orchid, Photographing Girls, ex-The Berzerker, ex-My Dying Bride (live)
Sam Loynes Guitars (2012-present)
See also: Akercocke, Shrines, The Antichrist Imperium, Diminished Fifth, ex-Talanas (live)
Peter Benjamin Guitars, Vocals (2012-present)
See also: This Is Endless, ex-Concept (live), ex-Akercocke, ex-Corpsing, ex-Pantheist, ex-The Order of Apollyon


Technical info
(IMG:https://metalarea.org/images/spectrogram/2021_Nov/4754c75f519557dd27ea7020172dcc32.png)
Input File: 07 - Methods of Madness.mp3
Channels : 2
Sample Rate : 44100
Precision : 16-bit
Duration : 00:04:51.70 = 12863926 samples = 21877.4 CDDA sectors
File Size : 11.8M
Bit Rate : 323k
Sample Encoding: MPEG audio (layer I, II or III)
Comments :
Title=Methods of Madness
Artist=Voices
Album=Breaking the Trauma Bond
Tracknumber=7/16
Year=2021



Register


Go to the top of the page
  Insert nick Quick quote
+Quote Post
 
Start new topic
Replies (1 - 3)
post Nov 25 2021, 19:25:00
Post #2

Ёлд ХеллоВяйне
Group Icon
Group: V.I.P
Posts: 32,317
Releases: 144
From: Питер
On Forums: 15 years 1 month
Thanks: 20245 time(s)
Russian Federation




Thanks:
(1) Occultas,
Go to the top of the page
  Insert nick Quick quote
+Quote Post
post Yesterday, 21:50:43
Post #3

Правь статус, ####!111
**************
Group: Металариец
Posts: 49,519
Releases: 891
On Forums: 12 years 5 months
Thanks: 45507 time(s)
Russian Federation


Интересно будет почитать мнение FullOfHate.
Go to the top of the page
  Insert nick Quick quote
+Quote Post
post Yesterday, 21:57:31
Post #4

Девять Литров
*********
Group: Металариец
Posts: 986
Releases: 0
On Forums: 8 years 3 months
Thanks: 734 time(s)
Australia


QUOTE(vosmidesijatye @ Nov 26 2021, 21:50:43) *
Интересно будет почитать мнение FullOfHate.

(IMG:style_emoticons/default/15.gif)
Go to the top of the page
  Insert nick Quick quote
+Quote Post

Reply to this topicStart new topic
3 User(s) are reading this topic (1 Guests and 0 Anonymous Users)

 



- Lo-Fi Version Support form
Copyrights and abuse reports form
Time is now: 27th November 2021 - 00:20:44