Welcome Guest ( Log In | Register )

> Voices - Breaking The Trauma Bond (2021), Progressive Black/Death Metal (D6)
post Nov 25 2021, 13:26:07
Post #1

Правь статус, ####!111
**************
Group: Металариец
Posts: 28,636
Releases: 20956
From: Г.Харьков
On Forums: 9 years 8 months
Thanks: 428450 time(s)
Unknown


(IMG:https://metalarea.org/images/audiocovers/2021_Nov/acov_tid358790_thumb.jpg)

*Artist: Voices
*Album: Breaking The Trauma Bond
*Year: 2021
*Genre: Progressive Black/Death Metal
*Country: United Kingdom (IMG:https://metalarea.org/forum/style_images/flags/United%20Kingdom.png)
*Format: mp3@CBR320kbps
*Size: 158MB

Tracklist:
1. A Field Without Crows
2. Breaking the Trauma Bond
3. An Audience of Mannequins
4. Lilacs In-Between
5. Ghost City
6. Petrograph
7. Methods of Madness
8. Running Away
9. Absent Equilibrium
10. Beckoning Shadows
11. My Sick Mind
12. Whispers
13. The Widower
14. Kaleidoscope of Thorns
15. She Speaks to Him in a Dream
16. Photographs of a Storm Passing Overhead
******************************
Total playing time: 1:08:15



Extended info
Dan Abela Bass (2012-present)
See also: Sarah Jezebel Deva, ex-Dark Veil
David Gray Drums (2012-present)
See also: Akercocke, The Antichrist Imperium, ex-Church of Satan, ex-Salem Orchid, Photographing Girls, ex-The Berzerker, ex-My Dying Bride (live)
Sam Loynes Guitars (2012-present)
See also: Akercocke, Shrines, The Antichrist Imperium, Diminished Fifth, ex-Talanas (live)
Peter Benjamin Guitars, Vocals (2012-present)
See also: This Is Endless, ex-Concept (live), ex-Akercocke, ex-Corpsing, ex-Pantheist, ex-The Order of Apollyon


Technical info
(IMG:https://metalarea.org/images/spectrogram/2021_Nov/4754c75f519557dd27ea7020172dcc32.png)
Input File: 07 - Methods of Madness.mp3
Channels : 2
Sample Rate : 44100
Precision : 16-bit
Duration : 00:04:51.70 = 12863926 samples = 21877.4 CDDA sectors
File Size : 11.8M
Bit Rate : 323k
Sample Encoding: MPEG audio (layer I, II or III)
Comments :
Title=Methods of Madness
Artist=Voices
Album=Breaking the Trauma Bond
Tracknumber=7/16
Year=2021



Register


Go to the top of the page
  Insert nick Quick quote
+Quote Post
 
Start new topic
Replies (1 - 6)
post Nov 25 2021, 19:25:00
Post #2

Ёлд ХеллоВяйне
Group Icon
Group: V.I.P
Posts: 32,584
Releases: 144
From: Питер
On Forums: 15 years 3 months
Thanks: 20459 time(s)
Russian Federation




Thanks:
(1) Occultas,
Go to the top of the page
  Insert nick Quick quote
+Quote Post
post Nov 26 2021, 21:50:43
Post #3

Правь статус, ####!111
**************
Group: Металариец
Posts: 49,800
Releases: 901
On Forums: 12 years 7 months
Thanks: 45997 time(s)
Russian Federation


Интересно будет почитать мнение FullOfHate.


Thanks:
(1) ingram,
Go to the top of the page
  Insert nick Quick quote
+Quote Post
post Nov 26 2021, 21:57:31
Post #4

Маньяк
**********
Group: Металариец
Posts: 1,031
Releases: 0
On Forums: 8 years 5 months
Thanks: 760 time(s)
Australia


QUOTE(vosmidesijatye @ Nov 26 2021, 21:50:43) *
Интересно будет почитать мнение FullOfHate.

(IMG:style_emoticons/default/15.gif)


Thanks:
Go to the top of the page
  Insert nick Quick quote
+Quote Post
post Dec 13 2021, 22:17:34
Post #5

Правь статус, ####!111
**************
Group: Металариец
Posts: 4,510
Releases: 18
From: Holland
On Forums: 15 years 6 months
Thanks: 1506 time(s)
Netherlands


Отличный альбом! После сингла ожидания были довольно высоки, но не подвели. Не скажу, что все по вкусу, в конце концов альбомы с такой продолжительностью редко бывают идеальными, некоторые трэки я бы повыкидывал и в целом когда они фигачат бластбиты меня просто уносят и хочется еще и еще. Ну и некоторые мелодии не совсем в кассу.

Сбалансированный альбом, не надоедает. Есть и быстрые куски и спокойные песни.

Хорошо, что добавили заслушанную до дыр Petrograph, песня просто бомбическая, да жаль оригинал был имхо лучше, там такой адский бас.

На носителе хотел заказать, но с доставкой винилка выливается в 50 фунтов, не уверен, что готов к таким тратам, но прошлые работы может закажу. Группа очень хорошая, от альбома к альбому никогда не знаешь наперед, чем удивят.


Thanks:
Go to the top of the page
  Insert nick Quick quote
+Quote Post
post Dec 13 2021, 22:35:14
Post #6

Ад кипел смехом
**************
Group: Металариец
Posts: 6,985
Releases: 8
On Forums: 12 years 2 months
Thanks: 3350 time(s)
Unknown


Соглашусь, альбом реально классный.


Thanks:
(1) Metalass,
Go to the top of the page
  Insert nick Quick quote
+Quote Post
post Dec 19 2021, 10:25:00
Post #7

Правь статус, ####!111
**************
Group: Металариец
Posts: 5,204
Releases: 481
From: MoscoW
On Forums: 15 years 1 month
Thanks: 7909 time(s)
Russian Federation


VOICES:
Go to the top of the page
  Insert nick Quick quote
+Quote Post

Reply to this topicStart new topic
1 User(s) are reading this topic (1 Guests and 0 Anonymous Users)
0 Members:

 



- Lo-Fi Version Support form
Copyrights and abuse reports form
Time is now: 28th January 2022 - 23:27:46