Welcome Guest ( Log In | Register )

> Releases Upload / Добавление релизов

Добавить релиз тут / Click here to add release
Рекомендованные обменники / Recommended file shares

 
Reply to this topicStart new topic
> Death Angel - The Bastard Tracks [live] (2021), Thrash Metal (D)
post Nov 25 2021, 13:50:31
Post #1

Serial Uploader
Group Icon
Group: V.I.P
Posts: 37,884
Releases: 36046
From: Lithuania
On Forums: 13 years 5 months
Thanks: 439342 time(s)
Lithuania


(IMG:https://metalarea.org/images/audiocovers/2021_Nov/acov_tid358791_thumb.jpg)

*Artist: Death Angel
*Album: The Bastard Tracks [live]
*Year: 2021
*Genre: Thrash Metal
*Country: United States (IMG:https://metalarea.org/forum/style_images/flags/United%20States.png)
*Format: mp3@CBR320kbps
*Size: 165MB

Tracklist:
01. Lord of Hate (Live) 4:26
02. Where They Lay (Live) 4:44
03. Why You Do This (Live) 5:44
04. Fallen (Live) 4:48
05. Absence of Light (Live) 4:35
06. The Organization (Live) 4:32
07. Execution / Don’t Save Me (Live) 4:51
08. Succubus (Live) 4:37
09. It Can’t Be This (Live) 4:32
10. Let the Pieces Fall (Live) 6:01
11. Faded Remains (Live) 4:30
12. Volcanic (Live) 3:42
13. Falling Off the Edge of the World (Live) 3:37
14. Guilty of Innocence (Live) 4:44
15. Alive and Screaming (Live) 3:50
******************************
Total playing time: 1:09:13

(IMG:https://metalarea.org/images/myspace.png)



(IMG:https://metalarea.org/images/youtube.png)

Technical info
(IMG:https://metalarea.org/images/spectrogram/2021_Nov/63e2ecb9be78c79bee4d0945da982f5e.png)
Input File: 02-death_angel-where_they_lay_(live)-341a5867.mp3
Channels : 2
Sample Rate : 44100
Precision : 16-bit
Duration : 00:04:44.10 = 12528810 samples = 21307.5 CDDA sectors
File Size : 11.8M
Bit Rate : 332k
Sample Encoding: MPEG audio (layer I, II or III)
Comments :
Title=Where They Lay (Live)
Artist=Death Angel
Album=The Bastard Tracks
Tracknumber=2/15
Year=2021
Genre=Thrash Metal



Register


Go to the top of the page
  Insert nick Quick quote
+Quote Post

Reply to this topicStart new topic
2 User(s) are reading this topic (2 Guests and 0 Anonymous Users)
0 Members:

 



- Lo-Fi Version Support form
Copyrights and abuse reports form
Time is now: 27th November 2021 - 00:02:24