Welcome Guest ( Log In | Register )

> Releases Upload / Добавление релизов

Добавить релиз тут / Click here to add release
Рекомендованные обменники / Recommended file shares

 
Reply to this topicStart new topic
> The Long Cold Dark - There Are No Answers (2021), Thrash/Groove Metal
post Nov 25 2021, 13:50:33
Post #1

Правь статус, ####!111
**************
Group: Металариец
Posts: 28,129
Releases: 20522
From: Г.Харьков
On Forums: 9 years 6 months
Thanks: 417302 time(s)
Unknown


(IMG:https://metalarea.org/images/audiocovers/2021_Nov/acov_tid358792_thumb.jpg)

*Artist: The Long Cold Dark
*Album: There Are No Answers
*Year: 2021
*Genre: Thrash/Groove Metal
*Country: United States (IMG:https://metalarea.org/forum/style_images/flags/United%20States.png)
*Format: mp3@CBR320kbps
*Size: 90MB

Tracklist:
1. There Are No Answers
2. What We Should Fear
3. Tunnel Vision
4. Guns Guns Guns
5. Demystified
6. Inheritance
7. No Way Home
******************************
Total playing time: 39:34




Extended info
Adam Malone Bass
Jason Oberg Guitars, Vocals (2008-present)
Drew Celestino Vocals, Guitars (2008-present)
Collin Folger Drums (2014-present)


Technical info
(IMG:https://metalarea.org/images/spectrogram/2021_Nov/bb063e4bceb3fe6c7f24d4a9e669e60f.png)
Input File: 07 - No Way Home.mp3
Channels : 2
Sample Rate : 44100
Precision : 16-bit
Duration : 00:05:35.09 = 14777513 samples = 25131.8 CDDA sectors
File Size : 13.5M
Bit Rate : 323k
Sample Encoding: MPEG audio (layer I, II or III)
Comments :
Title=No Way Home
Artist=The Long Cold Dark
Album=There Are No Answers
Tracknumber=7/7
Year=2021



Register


Go to the top of the page
  Insert nick Quick quote
+Quote Post

Reply to this topicStart new topic
1 User(s) are reading this topic (1 Guests and 0 Anonymous Users)
0 Members:

 



- Lo-Fi Version Support form
Copyrights and abuse reports form
Time is now: 27th November 2021 - 00:43:55