Welcome Guest ( Log In | Register )

> Releases Upload / Добавление релизов

Добавить релиз тут / Click here to add release
Рекомендованные обменники / Recommended file shares

 
Reply to this topicStart new topic
> Eternal Evil - The Warriors Awakening Brings The Unholy Slaughter (2021), Old School Black/Thrash Metal
post Nov 25 2021, 14:09:41
Post #1

Правь статус, ####!111
**************
Group: Металариец
Posts: 28,129
Releases: 20522
From: Г.Харьков
On Forums: 9 years 6 months
Thanks: 417297 time(s)
Unknown


(IMG:https://metalarea.org/images/audiocovers/2021_Nov/acov_tid358793_thumb.jpg)

*Artist: Eternal Evil
*Album: The Warriors Awakening Brings The Unholy Slaughter
*Year: 2021
*Genre: Old School Black/Thrash Metal
*Country: Sweden (IMG:https://metalarea.org/forum/style_images/flags/Sweden.png)
*Format: mp3@CBR320kbps
*Size: 98MB

Tracklist:
1. Succubus 03:37
2. Bestial Fornication 02:20
3. Terror of the Sphinx 05:11
4. The Captors Command 02:48
5. Minotaur of Evil 05:44
6. The Nocturnal Omen 05:01
7. Satanic Forces 03:55
8. Rise of Death 02:58
9. Eternal Evil 05:20
10. Witch's Spell 03:22
11. Stab on the Blade 02:16
******************************
Total playing time: 42:32





Extended info
Jacob "Ginger" Livåg Bass (2019-present)
Alphonse Bouquelon Drums (2019-present)
Adrian Vocals, Guitars (2019-present)
See also: The Burning of Sodom, ex-Three Dead Fingers
Tobias Ozzy Lindström Guitars (2020-present)
See also: ex-Slaughtersword


Technical info
(IMG:https://metalarea.org/images/spectrogram/2021_Nov/0e1b322a6e73530d88a4249eac81cccb.png)
Input File: 09 - Eternal Evil.mp3
Channels : 2
Sample Rate : 44100
Precision : 16-bit
Duration : 00:05:20.44 = 14131184 samples = 24032.6 CDDA sectors
File Size : 12.9M
Bit Rate : 323k
Sample Encoding: MPEG audio (layer I, II or III)
Comments :
Title=Eternal Evil
Artist=Eternal Evil
Album=The Warriors Awakening... Brings The Unholy Slaughter!
Tracknumber=9/11
Year=2021



Register


Go to the top of the page
  Insert nick Quick quote
+Quote Post

Reply to this topicStart new topic
2 User(s) are reading this topic (2 Guests and 0 Anonymous Users)
0 Members:

 



- Lo-Fi Version Support form
Copyrights and abuse reports form
Time is now: 27th November 2021 - 00:24:58