Welcome Guest ( Log In | Register )

> Releases Upload / Добавление релизов

Добавить релиз тут / Click here to add release
Рекомендованные обменники / Recommended file shares

 
Reply to this topicStart new topic
> Gurthang - Hearts Of The Hollow (2021), Black/Funeral Doom Metal (D)
post Nov 25 2021, 14:21:13
Post #1

Правь статус, ####!111
**************
Group: Металариец
Posts: 28,129
Releases: 20522
From: Г.Харьков
On Forums: 9 years 6 months
Thanks: 417305 time(s)
Unknown


(IMG:https://metalarea.org/images/audiocovers/2021_Nov/acov_tid358794_thumb.jpg)

*Artist: Gurthang
*Album: Hearts Of The Hollow
*Year: 2021
*Genre: Black/Funeral Doom Metal
*Country: Poland (IMG:https://metalarea.org/forum/style_images/flags/Poland.png)
*Format: mp3@CBR320kbps
*Size: 99MB

Tracklist:
1. Vide de Cœurs (prologue) 01:47
2. Structures of Constriction 08:00
3. Spasms of Reflection 06:05
4. Concealed Beneath 05:52
5. In the Shrines of Self-Creation 05:36
6. Hearts of the Hollow 06:34
7. The Apathy of Decadence 06:13
8. Constriction (reprise) 03:01
******************************
Total playing time: 43:08




Extended info
Stormalv Bass
A.Z.V. Vocals, Guitars, Effects
G.H. Ambiance, Effects
Vojfrost Keyboards, Effects
Turenn Drums


Technical info
(IMG:https://metalarea.org/images/spectrogram/2021_Nov/1dbac5793a982b2314d81c4041de0081.png)
Input File: 07 - The Apathy of Decadence.mp3
Channels : 2
Sample Rate : 44100
Precision : 16-bit
Duration : 00:06:13.08 = 16452608 samples = 27980.6 CDDA sectors
File Size : 15.0M
Bit Rate : 322k
Sample Encoding: MPEG audio (layer I, II or III)
Comments :
Title=The Apathy of Decadence
Artist=Gurthang
Album=Hearts of the Hollow
Tracknumber=7/8
Year=2021



Register


Go to the top of the page
  Insert nick Quick quote
+Quote Post

Reply to this topicStart new topic
1 User(s) are reading this topic (1 Guests and 0 Anonymous Users)
0 Members:

 



- Lo-Fi Version Support form
Copyrights and abuse reports form
Time is now: 27th November 2021 - 01:11:04