Welcome Guest ( Log In | Register )

> Releases Upload / Добавление релизов

Добавить релиз тут / Click here to add release
Рекомендованные обменники / Recommended file shares

> Imperialist - Zenith (2021), Black Metal
post Nov 25 2021, 14:29:56
Post #1

Serial Uploader
Group Icon
Group: V.I.P
Posts: 37,884
Releases: 36046
From: Lithuania
On Forums: 13 years 5 months
Thanks: 439353 time(s)
Lithuania


(IMG:https://metalarea.org/images/audiocovers/2021_Nov/acov_tid358795_thumb.jpg)

*Artist: Imperialist
*Album: Zenith
*Year: 2021
*Genre: Black Metal
*Country: United States (IMG:https://metalarea.org/forum/style_images/flags/United%20States.png)
*Format: mp3@CBR320kbps
*Size: 100MB

Tracklist:
1. 01011000 02:11
2. The Maw 05:28
3. Parallax Descends 06:17
4. He Who Mastered Shapes 08:29
5. Majesty of the Void 07:08
6. Terminal Odyssey 05:56
7. Beyond the Celestial Veil 08:17
******************************
Total playing time: 43:46




(IMG:https://metalarea.org/images/youtube.png)

Technical info
(IMG:https://metalarea.org/images/spectrogram/2021_Nov/32a0f08269d87a6d34b9297effbd08cd.png)
Input File: 02 - The Maw.mp3
Channels : 2
Sample Rate : 44100
Precision : 16-bit
Duration : 00:05:27.75 = 14453775 samples = 24581.2 CDDA sectors
File Size : 13.2M
Bit Rate : 322k
Sample Encoding: MPEG audio (layer I, II or III)
Comments :
Title=The Maw
Artist=Imperialist
Album=Zenith
Tracknumber=2/7
Year=2021



Register


Go to the top of the page
  Insert nick Quick quote
+Quote Post
 
Start new topic
Replies (1 - 1)
post Yesterday, 21:21:39
Post #2

MDM-Thrash Metal
**************
Group: Металариец
Posts: 10,691
Releases: 1345
From: Одесса
On Forums: 14 years 3 months
Thanks: 32474 time(s)
Ukraine


Melodic Black Metal, очень добротный альбом!
Go to the top of the page
  Insert nick Quick quote
+Quote Post

Reply to this topicStart new topic
1 User(s) are reading this topic (1 Guests and 0 Anonymous Users)
0 Members:

 



- Lo-Fi Version Support form
Copyrights and abuse reports form
Time is now: 27th November 2021 - 01:24:36