Welcome Guest ( Log In | Register )

> Releases Upload / Добавление релизов

Добавить релиз тут / Click here to add release
Рекомендованные обменники / Recommended file shares

> Imperialist - Zenith (2021), Black Metal
post Nov 25 2021, 14:29:56
Post #1

Serial Uploader
Group Icon
Group: V.I.P
Posts: 38,070
Releases: 36228
From: Lithuania
On Forums: 13 years 7 months
Thanks: 443330 time(s)
Lithuania


(IMG:https://metalarea.org/images/audiocovers/2021_Nov/acov_tid358795_thumb.jpg)

*Artist: Imperialist
*Album: Zenith
*Year: 2021
*Genre: Black Metal
*Country: United States (IMG:https://metalarea.org/forum/style_images/flags/United%20States.png)
*Format: mp3@CBR320kbps
*Size: 100MB

Tracklist:
1. 01011000 02:11
2. The Maw 05:28
3. Parallax Descends 06:17
4. He Who Mastered Shapes 08:29
5. Majesty of the Void 07:08
6. Terminal Odyssey 05:56
7. Beyond the Celestial Veil 08:17
******************************
Total playing time: 43:46




(IMG:https://metalarea.org/images/youtube.png)

Technical info
(IMG:https://metalarea.org/images/spectrogram/2021_Nov/32a0f08269d87a6d34b9297effbd08cd.png)
Input File: 02 - The Maw.mp3
Channels : 2
Sample Rate : 44100
Precision : 16-bit
Duration : 00:05:27.75 = 14453775 samples = 24581.2 CDDA sectors
File Size : 13.2M
Bit Rate : 322k
Sample Encoding: MPEG audio (layer I, II or III)
Comments :
Title=The Maw
Artist=Imperialist
Album=Zenith
Tracknumber=2/7
Year=2021



Register


Go to the top of the page
  Insert nick Quick quote
+Quote Post
 
Start new topic
Replies (1 - 6)
post Nov 26 2021, 21:21:39
Post #2

MDM-Thrash Metal
**************
Group: Металариец
Posts: 10,778
Releases: 1359
From: Одесса
On Forums: 14 years 5 months
Thanks: 32777 time(s)
Ukraine


Melodic Black Metal, очень добротный альбом!
Go to the top of the page
  Insert nick Quick quote
+Quote Post
post Nov 27 2021, 09:17:23
Post #3

Common dweller of hell
**************
Group: Металариец
Posts: 4,187
Releases: 12
From: Dnipro
On Forums: 13 years 6 months
Thanks: 1643 time(s)
Ukraine


Ого, новый Империалист, предыдущий был такой хороший, что аж на CD взял.
Go to the top of the page
  Insert nick Quick quote
+Quote Post
post Nov 27 2021, 19:00:01
Post #4

Три Литра
***
Group: Завсегдатай
Posts: 228
Releases: 0
From: Zürich
On Forums: 7 months 1 week
Thanks: 115 time(s)
Switzerland


Что тут добротного, кроме качества записи...У Тулкандры материал интереснее и ярче, ей богу.
Кроме приятного соляка в последнем треке вообще ничего не запомнил - 43 минуты абсолютно одинаковой риффовки.
Go to the top of the page
  Insert nick Quick quote
+Quote Post
post Nov 29 2021, 09:56:31
Post #5

Common dweller of hell
**************
Group: Металариец
Posts: 4,187
Releases: 12
From: Dnipro
On Forums: 13 years 6 months
Thanks: 1643 time(s)
Ukraine


ЦИТАТА(AnthonyHipHopkins @ Nov 27 2021, 20:00:01) *
Что тут добротного, кроме качества записи...У Тулкандры материал интереснее и ярче, ей богу.
Кроме приятного соляка в последнем треке вообще ничего не запомнил - 43 минуты абсолютно одинаковой риффовки.

Ну с Тулкандрой сравнивать нельзя, тут абсолютно другая музыка, даже с нотками прога и не на все 100% melodic black.
У них и предыдущий альбом практически весь как одна песня был, этот даже получше вроде, да, может немного и однообразно,
но цепляет.
Go to the top of the page
  Insert nick Quick quote
+Quote Post
post Nov 29 2021, 10:40:37
Post #6

Три Литра
***
Group: Завсегдатай
Posts: 228
Releases: 0
From: Zürich
On Forums: 7 months 1 week
Thanks: 115 time(s)
Switzerland


QUOTE(isvili @ Nov 29 2021, 09:56:31) *
У них и предыдущий альбом практически весь как одна песня был, этот даже получше вроде, да, может немного и однообразно,
но цепляет.

Однообразно - это было бы еще терпимо. Но вот что здесь может цеплять так и не понял и после второго прогона, честно говоря...
Если что-то цепляет, то что-то можно выделить относительно "фона". Здесь кроме вышеупомянутого соло вообще же нет такого различия - это просто сплошной фон, который просто немного меняет темп и структуру
на протяжении этих 43 минут. Есть 2-максимум 3 момента (например вторая половина последнего трека), которые пытаются на что-то претендовать, но назвать их цепляющими это было бы лютым перебором.
Go to the top of the page
  Insert nick Quick quote
+Quote Post
post Nov 29 2021, 14:55:16
Post #7

Common dweller of hell
**************
Group: Металариец
Posts: 4,187
Releases: 12
From: Dnipro
On Forums: 13 years 6 months
Thanks: 1643 time(s)
Ukraine


ЦИТАТА(AnthonyHipHopkins @ Nov 29 2021, 11:40:37) *
Однообразно - это было бы еще терпимо. Но вот что здесь может цеплять так и не понял и после второго прогона, честно говоря...

Да все как бы объяснимо, на вкус и цвет......
Go to the top of the page
  Insert nick Quick quote
+Quote Post

Reply to this topicStart new topic
1 User(s) are reading this topic (1 Guests and 0 Anonymous Users)
0 Members:

 



- Lo-Fi Version Support form
Copyrights and abuse reports form
Time is now: 21st January 2022 - 17:50:07