Welcome Guest ( Log In | Register )

> Releases Upload / Добавление релизов

Добавить релиз тут / Click here to add release
Рекомендованные обменники / Recommended file shares

 
Reply to this topicStart new topic
> I Helvete - Sinisten Puiden Niitty (2021), Melodic Death/Black Metal
post Nov 25 2021, 14:33:24
Post #1

Правь статус, ####!111
**************
Group: Металариец
Posts: 28,131
Releases: 20522
From: Г.Харьков
On Forums: 9 years 6 months
Thanks: 417309 time(s)
Unknown


(IMG:https://metalarea.org/images/audiocovers/2021_Nov/acov_tid358796_thumb.jpg)

*Artist: I Helvete
*Album: Sinisten Puiden Niitty
*Year: 2021
*Genre: Melodic Death/Black Metal
*Country: Finland (IMG:https://metalarea.org/forum/style_images/flags/Finland.png)
*Format: mp3@CBR320kbps
*Size: 87MB

Tracklist:
1. Kunnes Kuolema Meidät Erottaa 05:41
2. Vihapuhe 03:49
3. Pohjaton Kuilu 06:34
4. Sairaan Mielen Sinfonia 04:40
5. Laulu Itselleni 04:58
6. Hirsipuu 11:58
******************************
Total playing time: 37:40




Extended info
Tapio Holappa Bass
Teemu Koski Drums
See also: Judas Avenger, Paraferia, ex-Sotahuuto
Manu Kujala Guitars
Aleksi Mäkelä Vocals, Guitars
See also: Paraferia


Technical info
(IMG:https://metalarea.org/images/spectrogram/2021_Nov/742b22bc92f03e3dd911e20b7d6a1ac4.png)
Input File: 05 - Laulu Itselleni.mp3
Channels : 2
Sample Rate : 44100
Precision : 16-bit
Duration : 00:04:58.52 = 13164600 samples = 22388.8 CDDA sectors
File Size : 12.1M
Bit Rate : 325k
Sample Encoding: MPEG audio (layer I, II or III)
Comments :
Title=Laulu Itselleni
Artist=I Helvete
Album=Sinisten Puiden Niitty
Tracknumber=5/6
Year=2021



Register


Go to the top of the page
  Insert nick Quick quote
+Quote Post

Reply to this topicStart new topic
1 User(s) are reading this topic (1 Guests and 0 Anonymous Users)
0 Members:

 



- Lo-Fi Version Support form
Copyrights and abuse reports form
Time is now: 27th November 2021 - 01:34:29