Welcome Guest ( Log In | Register )

> Concrete Winds - Nerve Butcherer (2021), Death Metal/Grindcore
post Nov 25 2021, 14:44:23
Post #1

Serial Uploader
Group Icon
Group: V.I.P
Posts: 38,499
Releases: 36646
From: Lithuania
On Forums: 13 years 11 months
Thanks: 453705 time(s)
Lithuania


(IMG:https://metalarea.org/images/audiocovers/2021_Nov/acov_tid358797_thumb.jpg)

*Artist: Concrete Winds
*Album: Nerve Butcherer
*Year: 2021
*Genre: Death Metal/Grindcore
*Country: Finland (IMG:https://metalarea.org/forum/style_images/flags/Finland.png)
*Format: mp3@CBR320kbps
*Size: 66MB

Tracklist:
1. Nerve Butcherer 02:25
2. Chromium Jaws 03:07
3. Demonic Truculence 01:57
4. Industrial Mutilation 02:46
5. Noise Trepanation 02:18
6. Intravenous Doctrine 01:59
7. Flaying Internecine 02:54
8. Paroxystic Flagellator 02:01
9. Dissolvent Baptism 04:48
10. Astomatous Vomiting 02:44
******************************
Total playing time: 26:59



(IMG:https://metalarea.org/images/youtube.png)

Technical info
(IMG:https://metalarea.org/images/spectrogram/2021_Nov/c0498a53edc62ff8107ae330c7dec25d.png)
Input File: 02. Chromium Jaws.mp3
Channels : 2
Sample Rate : 44100
Precision : 16-bit
Duration : 00:03:06.89 = 8241981 samples = 14017 CDDA sectors
File Size : 7.78M
Bit Rate : 333k
Sample Encoding: MPEG audio (layer I, II or III)
Comments :
Title=Chromium Jaws
Artist=Concrete Winds
Album=Nerve Butcherer
Tracknumber=2
Year=2021
Discnumber=1/1



Register


Go to the top of the page
  Insert nick Quick quote
+Quote Post
 
Start new topic
Replies (1 - 6)
post Nov 25 2021, 19:24:09
Post #2

melofags sniper
**************
Group: Металариец
Posts: 6,950
Releases: 0
On Forums: 14 years 2 months
Thanks: 8204 time(s)
Sudan


It's Death or Black Death but not really Grindcore even if you can find some elements in.


Go to the top of the page
  Insert nick Quick quote
+Quote Post
post Nov 25 2021, 23:38:53
Post #3

Only death is real
**************
Group: Металариец
Posts: 2,114
Releases: 0
From: R'lyeh
On Forums: 5 years 5 months
Thanks: 2939 time(s)
Iceland


Excellent! Very brutal and chaotic release.


Go to the top of the page
  Insert nick Quick quote
+Quote Post
post Nov 26 2021, 23:50:53
Post #4

Absorbence
**************
Group: Металариец
Posts: 2,031
Releases: 344
From: Vastland Abyss of Cthulhu
On Forums: 15 years 6 months
Thanks: 5894 time(s)
United States


they are just unstoppable, an unbelievable wave of energy and riffing attack


Thanks:
Go to the top of the page
  Insert nick Quick quote
+Quote Post
post Nov 27 2021, 10:31:56
Post #5

hearer & reader
**************
Group: Металариец
Posts: 10,282
Releases: 211
From: Moscow
On Forums: 14 years 8 months
Thanks: 12409 time(s)
Russian Federation


Register


Go to the top of the page
  Insert nick Quick quote
+Quote Post
post Nov 28 2021, 17:54:04
Post #6
BAN
Banned till
May 22 2022, 16:00:54



Помимо финского Блэка, мне всегда нравились банды из суоми которые играли Дэз Метал, Грайнд и прочее. Concrete Winds это только подтвердил. Брутально, хаотично и очень зажигательно. Наиприятнейший альбом!


Thanks:
(1) alikkon,
Go to the top of the page
  Insert nick Quick quote
+Quote Post
post Dec 10 2021, 09:43:52
Post #7

добрый мизантроп
**************
Group: Металариец
Posts: 2,961
Releases: 1
From: Менск
On Forums: 11 years 6 months
Thanks: 1315 time(s)
Madagascar


Reminds Mulk - Putrilogie (2009)
about melodies, but more of standart DM and chaotic, which is boring a bit.
However its not oneman and sounds quite natural, 9-/10
Go to the top of the page
  Insert nick Quick quote
+Quote Post

Reply to this topicStart new topic
1 User(s) are reading this topic (1 Guests and 0 Anonymous Users)
0 Members:

 



- Lo-Fi Version Support form
Copyrights and abuse reports form
Time is now: 29th May 2022 - 08:33:45