Welcome Guest ( Log In | Register )

> Releases Upload / Добавление релизов

Добавить релиз тут / Click here to add release
Рекомендованные обменники / Recommended file shares

> Concrete Winds - Nerve Butcherer (2021), Death Metal/Grindcore
post Nov 25 2021, 14:44:23
Post #1

Serial Uploader
Group Icon
Group: V.I.P
Posts: 37,884
Releases: 36046
From: Lithuania
On Forums: 13 years 5 months
Thanks: 439353 time(s)
Lithuania


(IMG:https://metalarea.org/images/audiocovers/2021_Nov/acov_tid358797_thumb.jpg)

*Artist: Concrete Winds
*Album: Nerve Butcherer
*Year: 2021
*Genre: Death Metal/Grindcore
*Country: Finland (IMG:https://metalarea.org/forum/style_images/flags/Finland.png)
*Format: mp3@CBR320kbps
*Size: 66MB

Tracklist:
1. Nerve Butcherer 02:25
2. Chromium Jaws 03:07
3. Demonic Truculence 01:57
4. Industrial Mutilation 02:46
5. Noise Trepanation 02:18
6. Intravenous Doctrine 01:59
7. Flaying Internecine 02:54
8. Paroxystic Flagellator 02:01
9. Dissolvent Baptism 04:48
10. Astomatous Vomiting 02:44
******************************
Total playing time: 26:59



(IMG:https://metalarea.org/images/youtube.png)

Technical info
(IMG:https://metalarea.org/images/spectrogram/2021_Nov/c0498a53edc62ff8107ae330c7dec25d.png)
Input File: 02. Chromium Jaws.mp3
Channels : 2
Sample Rate : 44100
Precision : 16-bit
Duration : 00:03:06.89 = 8241981 samples = 14017 CDDA sectors
File Size : 7.78M
Bit Rate : 333k
Sample Encoding: MPEG audio (layer I, II or III)
Comments :
Title=Chromium Jaws
Artist=Concrete Winds
Album=Nerve Butcherer
Tracknumber=2
Year=2021
Discnumber=1/1



Register


Go to the top of the page
  Insert nick Quick quote
+Quote Post
 
Start new topic
Replies (1 - 3)
post Nov 25 2021, 19:24:09
Post #2

melofags sniper
**************
Group: Металариец
Posts: 6,487
Releases: 0
On Forums: 13 years 8 months
Thanks: 7335 time(s)
Sudan


It's Death or Black Death but not really Grindcore even if you can find some elements in.


Thanks:
Go to the top of the page
  Insert nick Quick quote
+Quote Post
post Nov 25 2021, 23:38:53
Post #3

Black Metal War
***********
Group: Металариец
Posts: 1,954
Releases: 0
From: R'lyeh
On Forums: 4 years 11 months
Thanks: 2632 time(s)
Poland


Excellent! Very brutal and chaotic release.


Go to the top of the page
  Insert nick Quick quote
+Quote Post
post Yesterday, 23:50:53
Post #4

Absorbence
***********
Group: Металариец
Posts: 1,815
Releases: 218
From: Vastland Abyss of Cthulhu
On Forums: 15 years 2 weeks
Thanks: 3997 time(s)
Canada


they are just unstoppable, an unbelievable wave of energy and riffing attack


Thanks:
Go to the top of the page
  Insert nick Quick quote
+Quote Post

Reply to this topicStart new topic
2 User(s) are reading this topic (2 Guests and 0 Anonymous Users)
0 Members:

 



- Lo-Fi Version Support form
Copyrights and abuse reports form
Time is now: 27th November 2021 - 01:19:35