Welcome Guest ( Log In | Register )

> Releases Upload / Добавление релизов

Добавить релиз тут / Click here to add release
Рекомендованные обменники / Recommended file shares

> Hitten - Triumph & Tragedy (2021), Heavy Metal (D6)
post Nov 25 2021, 14:50:32
Post #1

Правь статус, ####!111
**************
Group: Металариец
Posts: 28,130
Releases: 20522
From: Г.Харьков
On Forums: 9 years 6 months
Thanks: 417309 time(s)
Unknown


(IMG:https://metalarea.org/images/audiocovers/2021_Nov/acov_tid358798_thumb.jpg)

*Artist: Hitten
*Album: Triumph & Tragedy
*Year: 2021
*Genre: Heavy Metal
*Country: Spain (IMG:https://metalarea.org/forum/style_images/flags/Spain.png)
*Format: mp3@CBR320kbps
*Size: 109MB

Tracklist:
1. Built to Rock 03:31
2. Eyes Never Lie 04:01
3. Meant to Be Mean 03:52
4. Hard Intentions (Secret Dancer) 03:54
5. Ride Out the Storm 03:19
6. Core of the Flame 04:47
7. Under Your Spell 04:41
8. Light Beyond the Darkness 04:35
9. Something to Hide 03:34
10. Triumph & Tragedy 11:11
******************************
Total playing time: 47:25




Extended info
Mr. C Bass
Dani Guitars
Johnny Lorca Guitars
Alex Panza Vocals
Willy Medina Drums


Technical info
(IMG:https://metalarea.org/images/spectrogram/2021_Nov/038a62f358cbf5dbabf71d6b95c06323.png)
Input File: 07 - Under Your Spell.mp3
Channels : 2
Sample Rate : 44100
Precision : 16-bit
Duration : 00:04:41.09 = 12396201 samples = 21082 CDDA sectors
File Size : 11.3M
Bit Rate : 323k
Sample Encoding: MPEG audio (layer I, II or III)
Comments :
Title=Under Your Spell
Artist=Hitten
Album=Triumph & Tragedy
Tracknumber=7/10
Year=2021



Register


Go to the top of the page
  Insert nick Quick quote
+Quote Post
 
Start new topic
Replies (1 - 1)
post Yesterday, 14:48:33
Post #2

Шесть Литров
******
Group: Металариец
Posts: 633
Releases: 0
From: Нижний Новгород
On Forums: 15 years 4 months
Thanks: 258 time(s)
Russian Federation


Хороший хэви из конца 80-х. Тем, кому нравились всякие бомжови, доккены и пр., думаю, и этот альбом зайдёт.
Go to the top of the page
  Insert nick Quick quote
+Quote Post

Reply to this topicStart new topic
2 User(s) are reading this topic (2 Guests and 0 Anonymous Users)
0 Members:

 



- Lo-Fi Version Support form
Copyrights and abuse reports form
Time is now: 27th November 2021 - 01:27:58