Welcome Guest ( Log In | Register )

> Releases Upload / Добавление релизов

Добавить релиз тут / Click here to add release
Рекомендованные обменники / Recommended file shares

> Hollow - Tower (2021), Progressive/Power Metal (D)
post Nov 25 2021, 14:53:26
Post #1

Serial Uploader
Group Icon
Group: V.I.P
Posts: 38,070
Releases: 36232
From: Lithuania
On Forums: 13 years 7 months
Thanks: 443494 time(s)
Lithuania


(IMG:https://metalarea.org/images/audiocovers/2021_Nov/acov_tid358799_thumb.jpg)

*Artist: Hollow
*Album: Tower
*Year: 2021
*Genre: Progressive/Power Metal
*Country: Sweden (IMG:https://metalarea.org/forum/style_images/flags/Sweden.png)
*Format: mp3@CBR320kbps
*Size: 85MB

Tracklist:
01. Birth 03:45
02. The Tower 03:25
03. Guardian 03:49
04. The Waiting Is Over 03:26
05. Destroyer of Worlds 03:38
06. Every Drop of My Blood 03:58
07. Sunrise 03:29
08. A Home Forgotten 03:30
09. Nation of Man 03:42
10. Wander On 03:39
******************************
Total playing time: 36:21

(IMG:https://metalarea.org/images/myspace.png)

Preview 3
(IMG:https://metalarea.org/images/youtube.png)

Technical info
(IMG:https://metalarea.org/images/spectrogram/2021_Nov/7686df48c1cf1963c45eff77075266dd.png)
Input File: 02 - The Tower.mp3
Channels : 2
Sample Rate : 44100
Precision : 16-bit
Duration : 00:03:26.00 = 9084600 samples = 15450 CDDA sectors
File Size : 8.39M
Bit Rate : 326k
Sample Encoding: MPEG audio (layer I, II or III)
Comments :
Title=The Tower
Artist=Hollow
Album=Tower
Tracknumber=2
Year=2021-11-26
Discnumber=1



Register


Go to the top of the page
  Insert nick Quick quote
+Quote Post
 
Start new topic
Replies (1 - 4)
post Nov 26 2021, 22:18:55
Post #2

Литр
*
Group: Подсевший
Posts: 89
Releases: 0
On Forums: 1 year 4 months
Thanks: 10 time(s)
Czech Republic


Lossless please?
Go to the top of the page
  Insert nick Quick quote
+Quote Post
post Nov 26 2021, 23:09:32
Post #3

Это просто место… где все подошло к концу.
**************
Group: Металариец
Posts: 6,469
Releases: 0
From: Страны Мамонтов
On Forums: 14 years 11 months
Thanks: 2568 time(s)
Antarctica


Обложка отличное
Что внутри?
Go to the top of the page
  Insert nick Quick quote
+Quote Post
post Nov 27 2021, 05:35:30
Post #4

Шесть Литров
******
Group: Металариец
Posts: 613
Releases: 0
From: Беларусь,Минск
On Forums: 11 years 8 months
Thanks: 57 time(s)
Unknown


Чёёёт уныло или я зажрался
Go to the top of the page
  Insert nick Quick quote
+Quote Post
post Nov 27 2021, 09:52:54
Post #5

Dark Ambient Shoujo
**********
Group: Металариец
Posts: 1,425
Releases: 3
On Forums: 13 years 3 weeks
Thanks: 895 time(s)
Russian Federation


Уныло и ты зажрался.
Go to the top of the page
  Insert nick Quick quote
+Quote Post

Reply to this topicStart new topic
1 User(s) are reading this topic (1 Guests and 0 Anonymous Users)
0 Members:

 



- Lo-Fi Version Support form
Copyrights and abuse reports form
Time is now: 24th January 2022 - 21:38:01