Welcome Guest ( Log In | Register )

> Releases Upload / Добавление релизов

Добавить релиз тут / Click here to add release
Рекомендованные обменники / Recommended file shares

> Fortress - Don't Spare The Wicked (2021), Heavy/Power Metal (D20)
post Nov 25 2021, 15:02:47
Post #1

Serial Uploader
Group Icon
Group: V.I.P
Posts: 37,884
Releases: 36046
From: Lithuania
On Forums: 13 years 5 months
Thanks: 439348 time(s)
Lithuania


(IMG:https://metalarea.org/images/audiocovers/2021_Nov/acov_tid358800_thumb.jpg)

*Artist: Fortress
*Album: Don't Spare The Wicked
*Year: 2021
*Genre: Heavy/Power Metal
*Country: United States (IMG:https://metalarea.org/forum/style_images/flags/United%20States.png)
*Format: mp3@CBR320kbps
*Size: 67MB

Tracklist:
01. Lost Forever 04:06
02. Devil's Wheel 03:35
03. Anguish 03:37
04. Red Light Runner 02:55
05. Find Yourself 03:37
06. Children of the Night 04:08
07. The Passage 03:31
08. Don't Spare the Wicked 03:16
******************************
Total playing time: 28:45



(IMG:https://metalarea.org/images/youtube.png)

Technical info
(IMG:https://metalarea.org/images/spectrogram/2021_Nov/98e7db697a1e9a2487c66d56c8490653.png)
Input File: 02 - Devil\'s Wheel.mp3
Channels : 2
Sample Rate : 44100
Precision : 16-bit
Duration : 00:03:35.00 = 9481500 samples = 16125 CDDA sectors
File Size : 8.77M
Bit Rate : 326k
Sample Encoding: MPEG audio (layer I, II or III)
Comments :
Title=Devil's Wheel
Artist=Fortress
Album=Don't Spare the Wicked
Tracknumber=2
Year=2021-11-26
Discnumber=1



Register


Go to the top of the page
  Insert nick Quick quote
+Quote Post
 
Start new topic
Replies (1 - 2)
post Nov 25 2021, 22:02:14
Post #2

Пять Литров
*****
Group: Металариец
Posts: 498
Releases: 0
From: германия
On Forums: 12 years 11 months
Thanks: 181 time(s)
Russian Federation


Отличный музон! Зачет ! Старая школа!
Go to the top of the page
  Insert nick Quick quote
+Quote Post
post Yesterday, 08:57:44
Post #3

Пять Литров
*****
Group: Металариец
Posts: 498
Releases: 0
From: германия
On Forums: 12 years 11 months
Thanks: 181 time(s)
Russian Federation


Super!
Go to the top of the page
  Insert nick Quick quote
+Quote Post

Reply to this topicStart new topic
1 User(s) are reading this topic (1 Guests and 0 Anonymous Users)
0 Members:

 



- Lo-Fi Version Support form
Copyrights and abuse reports form
Time is now: 27th November 2021 - 00:45:12